找回密码

蓝光电影网

查看: 166|回复: 1

[剧情] 洪水 The.Flood.2019.1080p.AMZN.WEBRip.DDP5.1.x264-NTG 6.74GB

[复制链接]
蓝光币
515
发表于 2020-5-2 09:44:49 | 显示全部楼层 |阅读模式
p2510825466.jpg

译  名 大水
片  名 The Flood
年  代 2019
产  地 英国
类  别 剧情
语  言 英语
上映日期 2019-06-17(英国点映) / 2019-06-21(英国)
IMDb评分  5.1/10 from 565 users
IMDb链接  https://www.imdb.com/title/tt5954556
豆瓣评分 0/10 from 0 users
豆瓣链接 https://movie.douban.com/subject/27002691/
片  长 97分钟
导  演 Anthony Woodley
编  剧 Helen Kingston
主  演 琳娜·海蒂 Lena Headey
       伊恩·格雷 Iain Glen
       阿舍尔·阿里 Arsher Ali
       曼迪·吉尔 Mandip Gill
       伊万诺·杰里迈亚 Ivanno Jeremiah
       丽贝卡·约翰逊 Rebecca Johnson
       杰克·戈登 Jack Gordon
       阿米拉·加扎拉 Amira Ghazalla
       山姆·奥图 Sam Otto
       彼得·辛格 Peter Singh
       保罗·布莱克维尔 Paul Blackwell
       Christopher Sciueref
       John Lightbody
       Nina Kumar
       Scott Hinds


标  签 英国电影 | 英国 | 电视剧 | 琳娜·海蒂 | 剧情 | 伊恩·格雷 | 2020

简  介  

  Curzon Artificial Eye拿下琳娜·海蒂、伊恩·格雷主演的移民题材新片[大水]英国刊行权及流媒体播放权。海蒂饰演一位移民官,决议着在危险中追求庇护的人(伊万诺·杰里迈亚饰)的命运。伊恩·格雷则饰演其老板。本作由安东尼·伍德利执导,将在6月17日举行放映活动后,6月21日在英国影院和点播办事上上映这部电影。
  1. Video
  2. ID                                       : 1
  3. Format                                   : AVC
  4. Format/Info                              : Advanced Video Codec
  5. Format profile                           : [email protected]
  6. Format settings                          : CABAC / 4 Ref Frames
  7. Format settings, CABAC                   : Yes
  8. Format settings, Reference frames        : 4 frames
  9. Codec ID                                 : V_MPEG4/ISO/AVC
  10. Duration                                 : 1 h 39 min
  11. Bit rate mode                            : Constant
  12. Bit rate                                 : 9 089 kb/s
  13. Nominal bit rate                         : 10 000 kb/s
  14. Width                                    : 1 920 pixels
  15. Height                                   : 800 pixels
  16. Display aspect ratio                     : 2.40:1
  17. Frame rate mode                          : Constant
  18. Frame rate                               : 23.976 (24000/1001/189150) FPS
  19. Color space                              : YUV
  20. Chroma subsampling                       : 4:2:0
  21. Bit depth                                : 8 bits
  22. Scan type                                : Progressive
  23. Bits/(Pixel*Frame)                       : 0.247
  24. Stream size                              : 6.30 GiB (93%)
  25. Default                                  : Yes
  26. Forced                                   : No
  27. Color range                              : Limited
  28. Color primaries                          : BT.709
  29. Transfer characteristics                 : BT.709
  30. Matrix coefficients                      : BT.709

  31. Audio
  32. ID                                       : 2
  33. Format                                   : E-AC-3
  34. Format/Info                              : Enhanced AC-3
  35. Commercial name                          : Dolby Digital Plus
  36. Codec ID                                 : A_EAC3
  37. Duration                                 : 1 h 39 min
  38. Bit rate mode                            : Constant
  39. Bit rate                                 : 640 kb/s
  40. Channel(s)                               : 6 channels
  41. Channel layout                           : L R C LFE Ls Rs
  42. Sampling rate                            : 48.0 kHz
  43. Frame rate                               : 31.250 FPS (1536 SPF)
  44. Compression mode                         : Lossy
  45. Stream size                              : 454 MiB (7%)
  46. Language                                 : English
  47. Service kind                             : Complete Main
  48. Default                                  : Yes
  49. Forced                                   : No

  50. Text #1
  51. ID                                       : 3
  52. Format                                   : UTF-8
  53. Codec ID                                 : S_TEXT/UTF8
  54. Codec ID/Info                            : UTF-8 Plain Text
  55. Duration                                 : 1 h 34 min
  56. Bit rate                                 : 30 b/s
  57. Count of elements                        : 810
  58. Stream size                              : 21.2 KiB (0%)
  59. Language                                 : English
  60. Default                                  : No
  61. Forced                                   : No

  62. Text #2
  63. ID                                       : 4
  64. Format                                   : UTF-8
  65. Codec ID                                 : S_TEXT/UTF8
  66. Codec ID/Info                            : UTF-8 Plain Text
  67. Duration                                 : 1 h 34 min
  68. Bit rate                                 : 36 b/s
  69. Count of elements                        : 1033
  70. Stream size                              : 25.3 KiB (0%)
  71. Title                                    : SDH
  72. Language                                 : English
  73. Default                                  : No
  74. Forced                                   : No
复制代码

大水 The.Flood.2019.1080p.AMZN.WEBRip.DDP5.1.x264-NTG 6.74GB-1.png 大水 The.Flood.2019.1080p.AMZN.WEBRip.DDP5.1.x264-NTG 6.74GB-2.png 大水 The.Flood.2019.1080p.AMZN.WEBRip.DDP5.1.x264-NTG 6.74GB-3.png







回复

使用道具 举报

懒得打字嘛,点击右侧快捷回复 【右侧内容,后台自定义】
您需要登录后才可以回帖 登录 | 立即加入

本版积分规则

Archiver|小黑屋| 蓝光电影网 |网站地图

Copyright © 2021 Comsenz Inc. Powered by 蓝光电影网

蓝光电影网

本站内容由用户自主分享和转载自互联网,转载目的在于传递更多信息,并不代表本网赞同其观点和对其真实性负责。

如有侵权、违反国家法律政策行为,请联系我们,我们会第一时间及时清除和处理!

举报反馈邮箱:[email protected]

快速回复 返回顶部 返回列表