找回密码

蓝光电影网

查看: 244|回复: 0

[惊悚] 完美计划 A.Perfect.Plan.2020.1080p.AMZN.WEBRip.DDP5.1.x264-NTG 5.42GB

[复制链接]
蓝光币
515
发表于 2020-5-2 09:51:15 | 显示全部楼层 |阅读模式
MV5BOWI4YzQyOTYtMTdmMi00YmZjLTk1Y2UtZGE5OTA2ZGJkNTMyXkEyXkFqcGdeQXVyMTg1MTU3OTk@.jpg

译  名 完善计划
片  名 A Perfect Plan
年  代 2019
产  地 美国
类  别 惊悚
语  言 英语
IMDb链接  https://www.imdb.com/title/tt9261042
豆瓣评分 0/10 from 0 users
豆瓣链接 https://movie.douban.com/subject/33218521/
导  演 Jesse D. Ikeman
编  剧 Geoff Hart / Jesse D. Ikeman
主  演 威廉·弗西斯 William Forsythe
       凯丝琳·蒙露 Kathleen Munroe
       Carlo Rota
       吉亚·桑德赫 Gia Sandhu
       Michael Hough
       Milton Barnes
       Alli Chung
       迪恩·阿姆斯特朗 Dean Armstrong


简  介  

  Four notorious thieves wake up in a fortified warehouse and are forced by a cunning master thief to plan qiwan.cc and commit an extraordinary diamond heist.
  1. Video
  2. ID                                       : 1
  3. Format                                   : AVC
  4. Format/Info                              : Advanced Video Codec
  5. Format profile                           : [email protected]
  6. Format settings                          : CABAC / 4 Ref Frames
  7. Format settings, CABAC                   : Yes
  8. Format settings, Reference frames        : 4 frames
  9. Codec ID                                 : V_MPEG4/ISO/AVC
  10. Duration                                 : 1 h 26 min
  11. Bit rate mode                            : Constant
  12. Bit rate                                 : 8 346 kb/s
  13. Nominal bit rate                         : 10 000 kb/s
  14. Width                                    : 1 920 pixels
  15. Height                                   : 800 pixels
  16. Display aspect ratio                     : 2.40:1
  17. Frame rate mode                          : Constant
  18. Frame rate                               : 23.976 (24000/1001/189150) FPS
  19. Color space                              : YUV
  20. Chroma subsampling                       : 4:2:0
  21. Bit depth                                : 8 bits
  22. Scan type                                : Progressive
  23. Bits/(Pixel*Frame)                       : 0.227
  24. Stream size                              : 5.03 GiB (93%)
  25. Default                                  : Yes
  26. Forced                                   : No
  27. Color range                              : Limited
  28. Color primaries                          : BT.709
  29. Transfer characteristics                 : BT.709
  30. Matrix coefficients                      : BT.709

  31. Audio
  32. ID                                       : 2
  33. Format                                   : E-AC-3
  34. Format/Info                              : Enhanced AC-3
  35. Commercial name                          : Dolby Digital Plus
  36. Codec ID                                 : A_EAC3
  37. Duration                                 : 1 h 26 min
  38. Bit rate mode                            : Constant
  39. Bit rate                                 : 640 kb/s
  40. Channel(s)                               : 6 channels
  41. Channel layout                           : L R C LFE Ls Rs
  42. Sampling rate                            : 48.0 kHz
  43. Frame rate                               : 31.250 FPS (1536 SPF)
  44. Compression mode                         : Lossy
  45. Stream size                              : 395 MiB (7%)
  46. Language                                 : English
  47. Service kind                             : Complete Main
  48. Default                                  : Yes
  49. Forced                                   : No

  50. Text #1
  51. ID                                       : 3
  52. Format                                   : UTF-8
  53. Codec ID                                 : S_TEXT/UTF8
  54. Codec ID/Info                            : UTF-8 Plain Text
  55. Duration                                 : 1 h 21 min
  56. Bit rate                                 : 46 b/s
  57. Count of elements                        : 987
  58. Stream size                              : 27.9 KiB (0%)
  59. Language                                 : English
  60. Default                                  : No
  61. Forced                                   : No

  62. Text #2
  63. ID                                       : 4
  64. Format                                   : UTF-8
  65. Codec ID                                 : S_TEXT/UTF8
  66. Codec ID/Info                            : UTF-8 Plain Text
  67. Duration                                 : 1 h 22 min
  68. Bit rate                                 : 49 b/s
  69. Count of elements                        : 1116
  70. Stream size                              : 29.7 KiB (0%)
  71. Title                                    : SDH
  72. Language                                 : English
  73. Default                                  : No
  74. Forced                                   : No
复制代码

完善计划 A.Perfect.Plan.2020.1080p.AMZN.WEBRip.DDP5.1.x264-NTG 5.42GB-1.png 完善计划 A.Perfect.Plan.2020.1080p.AMZN.WEBRip.DDP5.1.x264-NTG 5.42GB-2.png 完善计划 A.Perfect.Plan.2020.1080p.AMZN.WEBRip.DDP5.1.x264-NTG 5.42GB-3.png







回复

使用道具 举报

懒得打字嘛,点击右侧快捷回复 【右侧内容,后台自定义】
您需要登录后才可以回帖 登录 | 立即加入

本版积分规则

Archiver|小黑屋| 蓝光电影网 |网站地图

Copyright © 2021 Comsenz Inc. Powered by 蓝光电影网

蓝光电影网

本站内容由用户自主分享和转载自互联网,转载目的在于传递更多信息,并不代表本网赞同其观点和对其真实性负责。

如有侵权、违反国家法律政策行为,请联系我们,我们会第一时间及时清除和处理!

举报反馈邮箱:[email protected]

快速回复 返回顶部 返回列表