找回密码

蓝光电影网

查看: 211|回复: 1

[剧情] 生命的烙印 The.Scar.1976.1080p.BluRay.x264-GHOULS 14.89GB

[复制链接]
蓝光币
511
发表于 2020-5-2 09:53:44 | 显示全部楼层 |阅读模式
p2509413919.jpg

译  名 生命的烙印 / the scar / 伤痕 / 疤
片  名 Blizna
年  代 1976
产  地 波兰
类  别 剧情
语  言 波兰语
上映日期 1976-12-06
IMDb评分  6.7/10 from 1493 users
IMDb链接  https://www.imdb.com/title/tt0074220
豆瓣评分 7.2/10 from 668 users
豆瓣链接 https://movie.douban.com/subject/1295336/
片  长 112 分钟
导  演 Krzysztof Kieslowski
编  剧 Krzysztof Kieslowski / Romualda Karas
主  演 Franciszek Pieczka
       Mariusz Dmochowski
       Jerzy Stuhr
       Jan Skotnicki
       Stanislaw Igar


标  签 基耶斯洛夫斯基 | 波兰 | KrzysztofKieslowski | Krzysztof_Kieslowski | 波兰电影 | 克日什托夫·基耶斯洛夫斯基 | 1976 | 1970s

简  介  

  政府掉臂民意否决,执意要将陈腐安好的小镇变作一家大型化工场的地点地,并言如此可以大大增加失业机遇。有丰富企业治理经历、对党虔诚的Stefan Bednarz(Franciszek Pieczka)被录用动手这一切。小镇是Bednarz和妻子(Halina Winiarska)的故乡,两人多年前曾因一路事务分开,今Bednarz要妻子同去,被拒。
  工场建成之初,虽有居民抗议政府的暴行,但一切还算顺遂。投入生产后,之前居民担忧的情况会日益糟糕等题目凸显,政府与居民的关系起头严重,Bednarz做中心调和人几近憔悴。而电视台导演(Michal Tarkowski)对工场的延续关注、助手(Jerzy Stuhr)将居民定见决心过滤、被迫与昔时迫使他和妻子阔别故乡的旧敌同伴工作、女儿(Joanna Orzeszkowska)的渐行渐远等工作,则令他渐渐大白自己不外是一枚棋子,萌生告退动机。
  1. Video
  2. ID                                       : 1
  3. Format                                   : AVC
  4. Format/Info                              : Advanced Video Codec
  5. Format profile                           : [email protected]
  6. Format settings                          : CABAC / 4 Ref Frames
  7. Format settings, CABAC                   : Yes
  8. Format settings, Reference frames        : 4 frames
  9. Codec ID                                 : V_MPEG4/ISO/AVC
  10. Duration                                 : 1 h 46 min
  11. Bit rate                                 : 19.4 Mb/s
  12. Width                                    : 1 788 pixels
  13. Height                                   : 1 080 pixels
  14. Display aspect ratio                     : 5:3
  15. Frame rate mode                          : Constant
  16. Frame rate                               : 23.976 (24000/1001/189150) FPS
  17. Color space                              : YUV
  18. Chroma subsampling                       : 4:2:0
  19. Bit depth                                : 8 bits
  20. Scan type                                : Progressive
  21. Bits/(Pixel*Frame)                       : 0.419
  22. Stream size                              : 14.4 GiB (97%)
  23. Writing library                          : x264 core 160 r3000 33f9e14
  24. Encoding settings                        : cabac=1 / ref=4 / deblock=1:-3:-3 / analyse=0x3:0x133 / me=umh / subme=10 / psy=1 / psy_rd=1.50:0.15 / mixed_ref=1 / me_range=24 / chroma_me=1 / trellis=2 / 8x8dct=1 / cqm=0 / deadzone=21,11 / fast_pskip=0 / chroma_qp_offset=-3 / threads=6 / lookahead_threads=1 / sliced_threads=0 / nr=0 / decimate=0 / interlaced=0 / bluray_compat=0 / constrained_intra=0 / bframes=8 / b_pyramid=2 / b_adapt=2 / b_bias=0 / direct=3 / weightb=1 / open_gop=0 / weightp=2 / keyint=250 / keyint_min=23 / scenecut=40 / intra_refresh=0 / rc=crf / mbtree=0 / crf=19.5 / qcomp=0.70 / qpmin=0 / qpmax=69 / qpstep=4 / ip_ratio=1.40 / pb_ratio=1.30 / aq=3:0.50
  25. Default                                  : Yes
  26. Forced                                   : No
  27. Color range                              : Limited
  28. Matrix coefficients                      : BT.709

  29. Audio
  30. ID                                       : 2
  31. Format                                   : FLAC
  32. Format/Info                              : Free Lossless Audio Codec
  33. Codec ID                                 : A_FLAC
  34. Duration                                 : 1 h 46 min
  35. Bit rate mode                            : Variable
  36. Bit rate                                 : 590 kb/s
  37. Channel(s)                               : 1 channel
  38. Channel layout                           : C
  39. Sampling rate                            : 48.0 kHz
  40. Frame rate                               : 10.417 FPS (4608 SPF)
  41. Bit depth                                : 24 bits
  42. Compression mode                         : Lossless
  43. Stream size                              : 450 MiB (3%)
  44. Writing library                          : Lavf58.29.100
  45. Language                                 : Polish
  46. Default                                  : Yes
  47. Forced                                   : No

  48. Text #1
  49. ID                                       : 3
  50. Format                                   : UTF-8
  51. Codec ID                                 : S_TEXT/UTF8
  52. Codec ID/Info                            : UTF-8 Plain Text
  53. Duration                                 : 1 h 43 min
  54. Bit rate                                 : 40 b/s
  55. Count of elements                        : 1037
  56. Stream size                              : 31.0 KiB (0%)
  57. Title                                    : English (Forced)
  58. Language                                 : English
  59. Default                                  : Yes
  60. Forced                                   : Yes

  61. Text #2
  62. ID                                       : 4
  63. Format                                   : PGS
  64. Muxing mode                              : zlib
  65. Codec ID                                 : S_HDMV/PGS
  66. Codec ID/Info                            : Picture based subtitle format used on BDs/HD-DVDs
  67. Duration                                 : 1 h 43 min
  68. Bit rate                                 : 23.3 kb/s
  69. Count of elements                        : 2074
  70. Stream size                              : 17.2 MiB (0%)
  71. Language                                 : English
  72. Default                                  : No
  73. Forced                                   : No

  74. Menu
  75. 00:00:00.000                             : en:Chapter 01
  76. 00:09:19.934                             : en:Chapter 02
  77. 00:18:59.638                             : en:Chapter 03
  78. 00:25:05.963                             : en:Chapter 04
  79. 00:35:24.664                             : en:Chapter 05
  80. 00:43:58.052                             : en:Chapter 06
  81. 00:54:51.121                             : en:Chapter 07
  82. 01:05:05.193                             : en:Chapter 08
  83. 01:12:09.867                             : en:Chapter 09
  84. 01:18:42.426                             : en:Chapter 10
  85. 01:28:13.997                             : en:Chapter 11
  86. 01:35:45.865                             : en:Chapter 12
复制代码

生命的烙印 The.Scar.1976.1080p.BluRay.x264-GHOULS 14.89GB-1.png






回复

使用道具 举报

懒得打字嘛,点击右侧快捷回复 【右侧内容,后台自定义】
您需要登录后才可以回帖 登录 | 立即加入

本版积分规则

Archiver|小黑屋| 蓝光电影网 |网站地图

Copyright © 2021 Comsenz Inc. Powered by 蓝光电影网

蓝光电影网

本站内容由用户自主分享和转载自互联网,转载目的在于传递更多信息,并不代表本网赞同其观点和对其真实性负责。

如有侵权、违反国家法律政策行为,请联系我们,我们会第一时间及时清除和处理!

举报反馈邮箱:[email protected]

快速回复 返回顶部 返回列表