找回密码

蓝光电影网

查看: 239|回复: 0

[动作] 杰德 布莱克 特工 Agent.Jade.Black.2020.1080p.WEB-DL.DD2.0.H264-FGT 3.78GB

[复制链接]
蓝光币
511
发表于 2020-5-2 10:02:20 | 显示全部楼层 |阅读模式
杰德 布莱克 奸细 Agent.Jade.Black.2020.1080p.WEB-DL.DD2.0.H264-FGT 3.78GB-1.png

译  名 杰德 布莱克 奸细
片  名 Agent Jade Black
年  代 2020
产  地 美国
类  别 行动
语  言 英语
上映日期 2020-01-07(美国)
IMDb评分  3.2/10 from 72 users
IMDb链接  https://www.imdb.com/title/tt10275080
豆瓣评分 0/10 from 0 users
豆瓣链接 https://movie.douban.com/subject/34945503/
导  演 Terry Spears
主  演 Connie Franklin
       Katie Burgess
       Buddy Campbell


简  介  

  A skilled young female agent is tasked with capturing a rogue former agent before she can unleash a biological weapon starting with the wealthy and powerful purveyors of the international sex trade.
  1. Video
  2. ID                                       : 1
  3. Format                                   : AVC
  4. Format/Info                              : Advanced Video Codec
  5. Format profile                           : [email protected]
  6. Format settings                          : CABAC / 4 Ref Frames
  7. Format settings, CABAC                   : Yes
  8. Format settings, Reference frames        : 4 frames
  9. Codec ID                                 : V_MPEG4/ISO/AVC
  10. Duration                                 : 1 h 40 min
  11. Bit rate                                 : 5 174 kb/s
  12. Width                                    : 1 912 pixels
  13. Height                                   : 1 072 pixels
  14. Display aspect ratio                     : 16:9
  15. Frame rate mode                          : Constant
  16. Frame rate                               : 23.976 FPS
  17. Color space                              : YUV
  18. Chroma subsampling                       : 4:2:0
  19. Bit depth                                : 8 bits
  20. Scan type                                : Progressive
  21. Bits/(Pixel*Frame)                       : 0.105
  22. Stream size                              : 3.65 GiB (96%)
  23. Title                                    : Agent.Jade.Black.2020.1080p.WEB-DL.DD2.0.H264-FGT
  24. Language                                 : English
  25. Default                                  : Yes
  26. Forced                                   : No
  27. Color range                              : Limited
  28. Color primaries                          : BT.709
  29. Transfer characteristics                 : BT.709
  30. Matrix coefficients                      : BT.709

  31. Audio
  32. ID                                       : 2
  33. Format                                   : AC-3
  34. Format/Info                              : Audio Coding 3
  35. Commercial name                          : Dolby Digital
  36. Codec ID                                 : A_AC3
  37. Duration                                 : 1 h 40 min
  38. Bit rate mode                            : Constant
  39. Bit rate                                 : 192 kb/s
  40. Channel(s)                               : 2 channels
  41. Channel layout                           : L R
  42. Sampling rate                            : 48.0 kHz
  43. Frame rate                               : 31.250 FPS (1536 SPF)
  44. Bit depth                                : 16 bits
  45. Compression mode                         : Lossy
  46. Stream size                              : 139 MiB (4%)
  47. Title                                    : Agent.Jade.Black.2020.1080p.WEB-DL.DD2.0.H264-FGT
  48. Language                                 : English
  49. Service kind                             : Complete Main
  50. Default                                  : Yes
  51. Forced                                   : No

  52. Menu
  53. 00:00:00.000                             : en:1
  54. 00:06:32.000                             : en:2
  55. 00:12:56.000                             : en:3
  56. 00:19:22.000                             : en:4
  57. 00:26:09.000                             : en:5
  58. 00:32:59.000                             : en:6
  59. 00:38:44.000                             : en:7
  60. 00:45:49.000                             : en:8
  61. 00:51:55.000                             : en:9
  62. 00:58:12.000                             : en:10
  63. 01:05:42.000                             : en:11
  64. 01:11:54.000                             : en:12
  65. 01:18:43.000                             : en:13
  66. 01:25:38.000                             : en:14
  67. 01:31:24.000                             : en:15
  68. 01:38:23.000                             : en:16
复制代码

杰德 布莱克 奸细 Agent.Jade.Black.2020.1080p.WEB-DL.DD2.0.H264-FGT 3.78GB-2.png 杰德 布莱克 奸细 Agent.Jade.Black.2020.1080p.WEB-DL.DD2.0.H264-FGT 3.78GB-3.png 杰德 布莱克 奸细 Agent.Jade.Black.2020.1080p.WEB-DL.DD2.0.H264-FGT 3.78GB-4.png







回复

使用道具 举报

懒得打字嘛,点击右侧快捷回复 【右侧内容,后台自定义】
您需要登录后才可以回帖 登录 | 立即加入

本版积分规则

Archiver|小黑屋| 蓝光电影网 |网站地图

Copyright © 2021 Comsenz Inc. Powered by 蓝光电影网

蓝光电影网

本站内容由用户自主分享和转载自互联网,转载目的在于传递更多信息,并不代表本网赞同其观点和对其真实性负责。

如有侵权、违反国家法律政策行为,请联系我们,我们会第一时间及时清除和处理!

举报反馈邮箱:[email protected]

快速回复 返回顶部 返回列表