找回密码

蓝光电影网

查看: 249|回复: 1

[剧情] 相思树/刺槐 Las.Acacias.2011.SPANISH.ENSUBBED.1080p.BluRay.x264-SONiDO 5.45GB

[复制链接]
蓝光币
511
发表于 2020-5-2 10:07:21 | 显示全部楼层 |阅读模式
相思树/刺槐 Las.Acacias.2011.SPANISH.ENSUBBED.1080p.BluRay.x264-SONiDO 5.45GB-1.png

译  名 相思树 / 刺槐 / 阿卡西亚
片  名 Las acacias
年  代 2011
产  地 西班牙 / 阿根廷
类  别 剧情
语  言 西班牙语
上映日期 2011
IMDb评分  6.8/10 from 2173 users
IMDb链接  https://www.imdb.com/title/tt1754078
豆瓣评分 7.0/10 from 271 users
豆瓣链接 https://movie.douban.com/subject/6120829/
片  长 86分钟
导  演 Pablo Giorgelli
编  剧 Pablo Giorgelli
主  演 Germán De Silva
       Hebe Duarte
       Nayra Calle Mamani


标  签 阿根廷 | 西班牙 | 2011 | 公路 | 戛纳 | 西班牙电影 | PabloGiorgelli | 拉美

简  介  

  鲁本是一个孤独的跑远程运输的卡车司机,他输送的货物是木料。乌拉圭的亚松森到布宜诺斯艾利斯的高速公路,是他工作了多年地方。
  可是明天的车程却有些分歧。在亚松森的休息站,鲁本碰到了杰塔。她希望能搭上鲁本的货车一路去布宜诺斯艾利斯。鲁本答应了她的要求。可是当鲁本上路的时辰,他惊奇地发现杰塔还带着一个只要8个月的大的小孩。这对于1500千米的远程观光来说可不是什么好事。
  “货车渐渐地开上了高速公路,鲁本和杰塔之间的不信赖和相互的思疑也在渐渐消失。他们相互闲谈,谁也没有问对方生活的细节,可是这两小我似乎在旅途中找到了默契。虽然他们都有些寡言,但这并不是一趟沉默的旅程。

获奖情况  

  第64届戛纳电影节(2011)
  金摄影机奖(导演童贞作奖) 巴勃罗·乔治力
  影评人周单元  自力电影推行协会奖 巴勃罗·乔治力
  影评人周单元  年轻批评家奖 巴勃罗·乔治力

  第59届圣塞巴斯蒂安国际电影节(2011)
  地平线大奖 巴勃罗·乔治力
  1. Video
  2. ID                                       : 1
  3. Format                                   : AVC
  4. Format/Info                              : Advanced Video Codec
  5. Format profile                           : [email protected]
  6. Format settings                          : CABAC / 4 Ref Frames
  7. Format settings, CABAC                   : Yes
  8. Format settings, Reference frames        : 4 frames
  9. Codec ID                                 : V_MPEG4/ISO/AVC
  10. Duration                                 : 1 h 22 min
  11. Bit rate                                 : 8 819 kb/s
  12. Width                                    : 1 920 pixels
  13. Height                                   : 1 080 pixels
  14. Display aspect ratio                     : 16:9
  15. Frame rate mode                          : Constant
  16. Frame rate                               : 25.000 FPS
  17. Color space                              : YUV
  18. Chroma subsampling                       : 4:2:0
  19. Bit depth                                : 8 bits
  20. Scan type                                : Progressive
  21. Bits/(Pixel*Frame)                       : 0.170
  22. Stream size                              : 4.97 GiB (91%)
  23. Writing library                          : x264 core 122 r2184 5c85e0a
  24. Encoding settings                        : cabac=1 / ref=4 / deblock=1:0:0 / analyse=0x3:0x133 / me=umh / subme=7 / psy=1 / psy_rd=1.00:0.00 / mixed_ref=1 / me_range=16 / chroma_me=1 / trellis=1 / 8x8dct=1 / cqm=0 / deadzone=21,11 / fast_pskip=0 / chroma_qp_offset=-2 / threads=12 / sliced_threads=0 / nr=0 / decimate=1 / interlaced=0 / bluray_compat=0 / constrained_intra=0 / bframes=3 / b_pyramid=2 / b_adapt=2 / b_bias=0 / direct=3 / weightb=1 / open_gop=0 / weightp=2 / keyint=250 / keyint_min=25 / scenecut=40 / intra_refresh=0 / rc_lookahead=50 / rc=2pass / mbtree=1 / bitrate=8819 / ratetol=1.0 / qcomp=0.60 / qpmin=0 / qpmax=69 / qpstep=4 / cplxblur=20.0 / qblur=0.5 / ip_ratio=1.40 / aq=1:1.00
  25. Language                                 : English
  26. Default                                  : Yes
  27. Forced                                   : No

  28. Audio
  29. ID                                       : 2
  30. Format                                   : AC-3
  31. Format/Info                              : Audio Coding 3
  32. Commercial name                          : Dolby Digital
  33. Codec ID                                 : A_AC3
  34. Duration                                 : 1 h 22 min
  35. Bit rate mode                            : Constant
  36. Bit rate                                 : 640 kb/s
  37. Channel(s)                               : 2 channels
  38. Channel layout                           : L R
  39. Sampling rate                            : 48.0 kHz
  40. Frame rate                               : 31.250 FPS (1536 SPF)
  41. Bit depth                                : 16 bits
  42. Compression mode                         : Lossy
  43. Stream size                              : 378 MiB (7%)
  44. Language                                 : Spanish
  45. Service kind                             : Complete Main
  46. Default                                  : Yes
  47. Forced                                   : No
复制代码

相思树/刺槐 Las.Acacias.2011.SPANISH.ENSUBBED.1080p.BluRay.x264-SONiDO 5.45GB-2.png 相思树/刺槐 Las.Acacias.2011.SPANISH.ENSUBBED.1080p.BluRay.x264-SONiDO 5.45GB-3.png 相思树/刺槐 Las.Acacias.2011.SPANISH.ENSUBBED.1080p.BluRay.x264-SONiDO 5.45GB-4.png







回复

使用道具 举报

蓝光币
377
发表于 2020-5-2 12:24:49 | 显示全部楼层

楼主太厉害了!楼主,电影应该很好看我觉得蓝光电影网真是个好地方!
回复 支持 反对

使用道具 举报

懒得打字嘛,点击右侧快捷回复 【右侧内容,后台自定义】
您需要登录后才可以回帖 登录 | 立即加入

本版积分规则

Archiver|小黑屋| 蓝光电影网 |网站地图

Copyright © 2021 Comsenz Inc. Powered by 蓝光电影网

蓝光电影网

本站内容由用户自主分享和转载自互联网,转载目的在于传递更多信息,并不代表本网赞同其观点和对其真实性负责。

如有侵权、违反国家法律政策行为,请联系我们,我们会第一时间及时清除和处理!

举报反馈邮箱:[email protected]

快速回复 返回顶部 返回列表