找回密码

蓝光电影网

查看: 337|回复: 1

[剧情] 琴子 Kotoko.2011.1080p.BluRay.x264-SONiDO 6.56GB

[复制链接]
蓝光币
515
发表于 2020-5-2 10:08:19 | 显示全部楼层 |阅读模式
琴子 Kotoko.2011.1080p.BluRay.x264-SONiDO 6.56GB-1.png

译  名 琴子 / Kotoko / 狂琴畸恋
片  名 Kotoko
年  代 2012
产  地 日本
类  别 剧情
语  言 日语
上映日期 2012-04-07
IMDb评分  6.7/10 from 1195 users
IMDb链接  https://www.imdb.com/title/tt1842532
豆瓣评分 6.2/10 from 379 users
豆瓣链接 https://movie.douban.com/subject/6027668/
片  长 91分钟
导  演 塚本晋也 Shinya Tsukamoto
编  剧 塚本晋也 Shinya Tsukamoto
主  演 Cocco
       冢本晋也 Shinya Tsukamoto


标  签 塚本晋也 | 日本 | 日本电影 | 2012 | Cocco | 女性 | 剧情 | 塚本晉也

简  介  

  喧哗都会的一隅,单身妈妈琴子(Cocco 饰)僧人在襁褓中的儿子大二郎单独居住在一间老旧的公寓中。相当长的一段时候内,琴子备受精神题目标困扰,凡是在她眼前出现的人城市酿成两个,她分不清哪个是真哪个是假,神经恐惧懦弱到了极限。只要当她唱歌时,眼前的幻象才临时消失。而与此同时,对大二郎的过度管忧与庇护又让琴子的精神状态越发恶化,终极她不能不面临与儿子分此外命运。某天,琴子相逢貌不惊人的小说家田中清太郎(冢本晋也 饰)。清太郎醉心于琴子的歌声,对她展开大胆的追求。面临眼前这个灰心失望、朝向自毁的女子,田中用尽各类方式去暖和、治愈琴子千疮百孔的心……
  本片荣获2011年威尼斯电影节地平线单元大奖。

获奖情况  

  第68届威尼斯电影节(2011)
  地平线单元奖 最好影片 冢本晋也
  1. Video
  2. ID                                       : 1
  3. Format                                   : AVC
  4. Format/Info                              : Advanced Video Codec
  5. Format profile                           : [email protected]
  6. Format settings                          : CABAC / 4 Ref Frames
  7. Format settings, CABAC                   : Yes
  8. Format settings, Reference frames        : 4 frames
  9. Codec ID                                 : V_MPEG4/ISO/AVC
  10. Duration                                 : 1 h 31 min
  11. Bit rate                                 : 8 742 kb/s
  12. Width                                    : 1 920 pixels
  13. Height                                   : 1 080 pixels
  14. Display aspect ratio                     : 16:9
  15. Frame rate mode                          : Constant
  16. Frame rate                               : 23.976 (23976/1000/189150) FPS
  17. Color space                              : YUV
  18. Chroma subsampling                       : 4:2:0
  19. Bit depth                                : 8 bits
  20. Scan type                                : Progressive
  21. Bits/(Pixel*Frame)                       : 0.176
  22. Stream size                              : 5.46 GiB (83%)
  23. Writing library                          : x264 core 129 r2245 bc13772
  24. Encoding settings                        : cabac=1 / ref=4 / deblock=1:0:0 / analyse=0x3:0x133 / me=umh / subme=7 / psy=1 / psy_rd=1.00:0.00 / mixed_ref=1 / me_range=16 / chroma_me=1 / trellis=1 / 8x8dct=1 / cqm=0 / deadzone=21,11 / fast_pskip=0 / chroma_qp_offset=-2 / threads=12 / lookahead_threads=2 / sliced_threads=0 / nr=0 / decimate=1 / interlaced=0 / bluray_compat=0 / constrained_intra=0 / bframes=3 / b_pyramid=2 / b_adapt=2 / b_bias=0 / direct=3 / weightb=1 / open_gop=0 / weightp=2 / keyint=250 / keyint_min=23 / scenecut=40 / intra_refresh=0 / rc_lookahead=50 / rc=2pass / mbtree=1 / bitrate=8742 / ratetol=1.0 / qcomp=0.60 / qpmin=0 / qpmax=69 / qpstep=4 / cplxblur=20.0 / qblur=0.5 / ip_ratio=1.40 / aq=1:1.00
  25. Language                                 : English
  26. Default                                  : Yes
  27. Forced                                   : No

  28. Audio
  29. ID                                       : 2
  30. Format                                   : DTS
  31. Format/Info                              : Digital Theater Systems
  32. Codec ID                                 : A_DTS
  33. Duration                                 : 1 h 31 min
  34. Bit rate mode                            : Constant
  35. Bit rate                                 : 1 509 kb/s
  36. Channel(s)                               : 6 channels
  37. Channel layout                           : C L R Ls Rs LFE
  38. Sampling rate                            : 48.0 kHz
  39. Frame rate                               : 93.750 FPS (512 SPF)
  40. Bit depth                                : 24 bits
  41. Compression mode                         : Lossy
  42. Stream size                              : 988 MiB (15%)
  43. Language                                 : Japanese
  44. Default                                  : Yes
  45. Forced                                   : No

  46. Text
  47. ID                                       : 3
  48. Format                                   : UTF-8
  49. Codec ID                                 : S_TEXT/UTF8
  50. Codec ID/Info                            : UTF-8 Plain Text
  51. Language                                 : English
  52. Default                                  : Yes
  53. Forced                                   : No

  54. Menu
  55. 00:00:00.000                             : en:00:00:00.000
  56. 00:02:13.216                             : en:00:02:13.216
  57. 00:04:27.684                             : en:00:04:27.684
  58. 00:08:08.321                             : en:00:08:08.321
  59. 00:12:14.651                             : en:00:12:14.651
  60. 00:15:16.457                             : en:00:15:16.457
  61. 00:21:13.939                             : en:00:21:13.939
  62. 00:25:37.244                             : en:00:25:37.244
  63. 00:30:46.094                             : en:00:30:46.094
  64. 00:36:59.008                             : en:00:36:59.008
  65. 00:41:56.055                             : en:00:41:56.055
  66. 00:47:37.063                             : en:00:47:37.063
  67. 00:50:11.300                             : en:00:50:11.300
  68. 00:57:16.600                             : en:00:57:16.600
  69. 01:03:32.392                             : en:01:03:32.392
  70. 01:08:38.072                             : en:01:08:38.072
  71. 01:15:27.815                             : en:01:15:27.815
  72. 01:19:07.076                             : en:01:19:07.076
  73. 01:25:03.515                             : en:01:25:03.515
  74. 01:29:16.893                             : en:01:29:16.893
复制代码

琴子 Kotoko.2011.1080p.BluRay.x264-SONiDO 6.56GB-2.png 琴子 Kotoko.2011.1080p.BluRay.x264-SONiDO 6.56GB-3.png 琴子 Kotoko.2011.1080p.BluRay.x264-SONiDO 6.56GB-4.png







回复

使用道具 举报

懒得打字嘛,点击右侧快捷回复 【右侧内容,后台自定义】
您需要登录后才可以回帖 登录 | 立即加入

本版积分规则

Archiver|小黑屋| 蓝光电影网 |网站地图

Copyright © 2021 Comsenz Inc. Powered by 蓝光电影网

蓝光电影网

本站内容由用户自主分享和转载自互联网,转载目的在于传递更多信息,并不代表本网赞同其观点和对其真实性负责。

如有侵权、违反国家法律政策行为,请联系我们,我们会第一时间及时清除和处理!

举报反馈邮箱:[email protected]

快速回复 返回顶部 返回列表