找回密码

蓝光电影网

查看: 346|回复: 0

[奇幻] 小木人奇遇3/小木人3 Knerten.I.Knipe.2011.1080p.BluRay.x264-WASTE 5.46GB

[复制链接]
蓝光币
515
发表于 2020-5-2 10:09:24 | 显示全部楼层 |阅读模式
小木人奇遇3/小木人3 Knerten.I.Knipe.2011.1080p.BluRay.x264-WASTE 5.46GB-1.png

译  名 小木人奇遇3 / 小木人3
片  名 Knerten i knipe
年  代 2011
产  地 挪威
类  别 家庭
语  言 挪威语
上映日期 2011
IMDb评分  5.8/10 from 115 users
IMDb链接  https://www.imdb.com/title/tt1611876
豆瓣评分 0/10 from 0 users
豆瓣链接 https://movie.douban.com/subject/5155344/
导  演 Arild ?stin Ommundsen
编  剧 Kristin Skogheim

标  签 挪威 | 奇异 | 儿童 | 挪威电影 | 我想看看好欠好 | 家庭 | 北欧五国

简  介  

  暂无相关剧情先容
  1. Video
  2. ID                                       : 1
  3. Format                                   : AVC
  4. Format/Info                              : Advanced Video Codec
  5. Format profile                           : [email protected]
  6. Format settings                          : CABAC / 4 Ref Frames
  7. Format settings, CABAC                   : Yes
  8. Format settings, Reference frames        : 4 frames
  9. Muxing mode                              : Header stripping
  10. Codec ID                                 : V_MPEG4/ISO/AVC
  11. Duration                                 : 1 h 11 min
  12. Bit rate                                 : 9 462 kb/s
  13. Width                                    : 1 920 pixels
  14. Height                                   : 1 040 pixels
  15. Display aspect ratio                     : 1.85:1
  16. Frame rate mode                          : Constant
  17. Frame rate                               : 24.000 FPS
  18. Color space                              : YUV
  19. Chroma subsampling                       : 4:2:0
  20. Bit depth                                : 8 bits
  21. Scan type                                : Progressive
  22. Bits/(Pixel*Frame)                       : 0.197
  23. Stream size                              : 4.60 GiB (84%)
  24. Writing library                          : x264 core 122 r2183 c522ad1
  25. Encoding settings                        : cabac=1 / ref=4 / deblock=1:0:0 / analyse=0x3:0x133 / me=umh / subme=7 / psy=1 / psy_rd=1.00:0.00 / mixed_ref=1 / me_range=16 / chroma_me=1 / trellis=1 / 8x8dct=1 / cqm=0 / deadzone=21,11 / fast_pskip=0 / chroma_qp_offset=-2 / threads=9 / sliced_threads=0 / nr=0 / decimate=1 / interlaced=0 / bluray_compat=0 / constrained_intra=0 / bframes=3 / b_pyramid=2 / b_adapt=1 / b_bias=0 / direct=1 / weightb=1 / open_gop=0 / weightp=2 / keyint=250 / keyint_min=23 / scenecut=40 / intra_refresh=0 / rc_lookahead=40 / rc=2pass / mbtree=1 / bitrate=9462 / ratetol=1.0 / qcomp=0.60 / qpmin=0 / qpmax=69 / qpstep=4 / cplxblur=20.0 / qblur=0.5 / ip_ratio=1.40 / aq=1:1.00
  26. Language                                 : Norwegian
  27. Default                                  : Yes
  28. Forced                                   : No

  29. Audio
  30. ID                                       : 2
  31. Format                                   : DTS
  32. Format/Info                              : Digital Theater Systems
  33. Muxing mode                              : Header stripping
  34. Codec ID                                 : A_DTS
  35. Duration                                 : 1 h 11 min
  36. Bit rate mode                            : Constant
  37. Bit rate                                 : 1 509 kb/s
  38. Channel(s)                               : 6 channels
  39. Channel layout                           : C L R Ls Rs LFE
  40. Sampling rate                            : 48.0 kHz
  41. Frame rate                               : 93.750 FPS (512 SPF)
  42. Bit depth                                : 24 bits
  43. Compression mode                         : Lossy
  44. Stream size                              : 770 MiB (14%)
  45. Language                                 : Norwegian
  46. Default                                  : Yes
  47. Forced                                   : No

  48. Text
  49. ID                                       : 3
  50. Format                                   : UTF-8
  51. Codec ID                                 : S_TEXT/UTF8
  52. Codec ID/Info                            : UTF-8 Plain Text
  53. Language                                 : English
  54. Default                                  : Yes
  55. Forced                                   : No
复制代码

小木人奇遇3/小木人3 Knerten.I.Knipe.2011.1080p.BluRay.x264-WASTE 5.46GB-2.png 小木人奇遇3/小木人3 Knerten.I.Knipe.2011.1080p.BluRay.x264-WASTE 5.46GB-3.png 小木人奇遇3/小木人3 Knerten.I.Knipe.2011.1080p.BluRay.x264-WASTE 5.46GB-4.png







回复

使用道具 举报

懒得打字嘛,点击右侧快捷回复 【右侧内容,后台自定义】
您需要登录后才可以回帖 登录 | 立即加入

本版积分规则

Archiver|小黑屋| 蓝光电影网 |网站地图

Copyright © 2021 Comsenz Inc. Powered by 蓝光电影网

蓝光电影网

本站内容由用户自主分享和转载自互联网,转载目的在于传递更多信息,并不代表本网赞同其观点和对其真实性负责。

如有侵权、违反国家法律政策行为,请联系我们,我们会第一时间及时清除和处理!

举报反馈邮箱:[email protected]

快速回复 返回顶部 返回列表