找回密码

蓝光电影网

查看: 244|回复: 2

[纪录] 史特拉莫:未来尚未命定 Joe.Strummer.The.Future.Is.Unwritten.2007.1080p.BluRay.x264-FKKHD 7.64GB

[复制链接]
蓝光币
519
发表于 2020-5-2 10:13:05 | 显示全部楼层 |阅读模式
史特拉莫:未来尚未命定 Joe.Strummer.The.Future.Is.Unwritten.2007.1080p.BluRay.x264-FKKHD 7.64GB-1.png

译  名 史特拉莫:未来尚未命定
片  名 Joe Strummer: The Future Is Unwritten
年  代 2007
产  地 爱尔兰 / 英国
类  别 记载片
语  言 英语
上映日期 2007-05-18
IMDb评分  7.6/10 from 3613 users
IMDb链接  https://www.imdb.com/title/tt0800099
豆瓣评分 8.2/10 from 230 users
豆瓣链接 https://movie.douban.com/subject/2036274/
片  长 USA: 123 分钟(Sundance Film Festival)
导  演 朱利安·邓波 Julien Temple
主  演 乔·斯特拉莫 Joe Strummer
       史蒂夫·布西密 Steve Buscemi
       波诺 Bono
       特里·柴米斯 Terry Chimes
       约翰·库珀·克拉克 John Cooper Clarke
       约翰?库萨克 John Cusack
       碧姬·芭铎 Brigitte Bardot
       米克·琼斯 Mick Jones
       保罗·西蒙侬 Paul Simonon
       托帕·希登 Topper Headon
       马特·狄龙 Matt Dillon


标  签 记载片 | 摇滚 | JoeStrummer | 列传 | Punk | TheClash | 音乐 | 爱尔兰

简  介  

  这是关于The Clash乐队灵魂人物Joe Strummer的记录片。The Clash乐队是一支在英国朋克乐坛历史上占有重要职位的乐队,几十年前,当朋克音乐如火如荼的成长的时辰,当性手枪乐队横扫朋克摇滚乐坛的时辰,一支朋克音乐的新生气力正在敏捷突起,这就是The Clash碰撞乐队。朋克音乐成长为明天的这类繁华气象,The Clash起到了庞大的鞭策感化。乐队组建于1976年,由Mick Jones任吉他手,Joe Strummer任主唱,Paul Simonon任贝司手。Topper Headon任鼓手。Joe Strummer生于政治世家,很多歌曲以政治为题材,有浓郁的右派思惟,上世纪70年月末期到80年月可谓是叱咤英伦乐坛,掀起朋克浪潮,1982年景功打入美国市场。 2002年12月22号下午,Joe Strummer这位50岁的朋克偶像在屋内颠仆身亡,死由于心脏停止跳动而谢世。很多音乐人带着繁重的心情悼念Strummer的过世,U2主唱Bono在官方网站上留言:“The Clash是最巨大的摇滚乐团,他们为U2写下最好守则 我们本要在一月碰面,跟Dave Stewart一路完成我们为曼德拉所创作的歌,这真是太震动了!”
  记录片展现了已经阿谁光阴的豪情,生命永久在理想的中不会老去,那份情怀,终会故意照不宣的共鸣。片中U2主唱Bono,以及好莱坞明星约翰·库萨克 ,约翰尼·德普,马特·狄龙以及美国自力电影导演吉姆·贾木许城市有对这个天赋摇滚音乐人,诉说感念和怀念。
  1. Video
  2. ID                                       : 1
  3. Format                                   : AVC
  4. Format/Info                              : Advanced Video Codec
  5. Format profile                           : [email protected]
  6. Format settings                          : CABAC / 4 Ref Frames
  7. Format settings, CABAC                   : Yes
  8. Format settings, Reference frames        : 4 frames
  9. Codec ID                                 : V_MPEG4/ISO/AVC
  10. Duration                                 : 1 h 59 min
  11. Bit rate                                 : 8 698 kb/s
  12. Width                                    : 1 920 pixels
  13. Height                                   : 1 040 pixels
  14. Display aspect ratio                     : 1.85:1
  15. Frame rate mode                          : Constant
  16. Frame rate                               : 25.000 FPS
  17. Color space                              : YUV
  18. Chroma subsampling                       : 4:2:0
  19. Bit depth                                : 8 bits
  20. Scan type                                : Progressive
  21. Bits/(Pixel*Frame)                       : 0.174
  22. Stream size                              : 7.11 GiB (93%)
  23. Writing library                          : x264 core 125 r2200 999b753
  24. Encoding settings                        : cabac=1 / ref=4 / deblock=1:0:0 / analyse=0x3:0x133 / me=umh / subme=7 / psy=1 / psy_rd=1.00:0.00 / mixed_ref=1 / me_range=16 / chroma_me=1 / trellis=1 / 8x8dct=1 / cqm=0 / deadzone=21,11 / fast_pskip=0 / chroma_qp_offset=-2 / threads=12 / lookahead_threads=2 / sliced_threads=0 / nr=0 / decimate=1 / interlaced=0 / bluray_compat=0 / constrained_intra=0 / bframes=3 / b_pyramid=2 / b_adapt=2 / b_bias=0 / direct=3 / weightb=1 / open_gop=0 / weightp=2 / keyint=250 / keyint_min=25 / scenecut=40 / intra_refresh=0 / rc_lookahead=50 / rc=2pass / mbtree=1 / bitrate=8698 / ratetol=1.0 / qcomp=0.60 / qpmin=0 / qpmax=69 / qpstep=4 / cplxblur=20.0 / qblur=0.5 / ip_ratio=1.40 / aq=1:1.00
  25. Language                                 : English
  26. Default                                  : Yes
  27. Forced                                   : No

  28. Audio
  29. ID                                       : 2
  30. Format                                   : AC-3
  31. Format/Info                              : Audio Coding 3
  32. Commercial name                          : Dolby Digital
  33. Codec ID                                 : A_AC3
  34. Duration                                 : 1 h 59 min
  35. Bit rate mode                            : Constant
  36. Bit rate                                 : 448 kb/s
  37. Channel(s)                               : 6 channels
  38. Channel layout                           : L R C LFE Ls Rs
  39. Sampling rate                            : 48.0 kHz
  40. Frame rate                               : 31.250 FPS (1536 SPF)
  41. Bit depth                                : 16 bits
  42. Compression mode                         : Lossy
  43. Stream size                              : 383 MiB (5%)
  44. Language                                 : English
  45. Service kind                             : Complete Main
  46. Default                                  : Yes
  47. Forced                                   : No
复制代码

史特拉莫:未来尚未命定 Joe.Strummer.The.Future.Is.Unwritten.2007.1080p.BluRay.x264-FKKHD 7.64GB-2.png 史特拉莫:未来尚未命定 Joe.Strummer.The.Future.Is.Unwritten.2007.1080p.BluRay.x264-FKKHD 7.64GB-3.png 史特拉莫:未来尚未命定 Joe.Strummer.The.Future.Is.Unwritten.2007.1080p.BluRay.x264-FKKHD 7.64GB-4.png







回复

使用道具 举报

蓝光币
1513
发表于 2020-5-2 10:33:39 | 显示全部楼层

论坛不能没有像楼主这样的人才啊!我会一直支持蓝光电影网
回复 支持 反对

使用道具 举报

懒得打字嘛,点击右侧快捷回复 【右侧内容,后台自定义】
您需要登录后才可以回帖 登录 | 立即加入

本版积分规则

Archiver|小黑屋| 蓝光电影网 |网站地图

Copyright © 2021 Comsenz Inc. Powered by 蓝光电影网

蓝光电影网

本站内容由用户自主分享和转载自互联网,转载目的在于传递更多信息,并不代表本网赞同其观点和对其真实性负责。

如有侵权、违反国家法律政策行为,请联系我们,我们会第一时间及时清除和处理!

举报反馈邮箱:[email protected]

快速回复 返回顶部 返回列表