找回密码

蓝光电影网

查看: 153|回复: 1

[喜剧] 亲情一线牵/偷腥家族 Crooked.Hearts.1991.1080p.AMZN.WEBRip.DDP2.0.x264-alfaHD 11.29GB

[复制链接]
蓝光币
519
发表于 2020-5-2 11:07:15 | 显示全部楼层 |阅读模式
亲情一线牵/偷腥家属 Crooked.Hearts.1991.1080p.AMZN.WEBRip.DDP2.0.x264-alfaHD 11.29GB-1.png

译  名 亲情一线牵 / 偷腥家属 / 被扭曲的心
片  名 Crooked Hearts
年  代 1991
产  地 美国
类  别 剧情 / 恋爱
语  言 英语
上映日期 1991-09-06
IMDb评分  6.1/10 from 844 users
IMDb链接  https://www.imdb.com/title/tt0101629
豆瓣评分 0/10 from 0 users
豆瓣链接 https://movie.douban.com/subject/1301614/
片  长 113 分钟
导  演 Michael Bortman
编  剧 Michael Bortman / Robert Boswell
主  演 文森特·多诺费奥 Vincent D'Onofrio
       詹妮弗·杰森·李 Jennifer Jason Leigh
       彼得·博格 Peter Berg
       辛迪·皮克特 Cindy Pickett
       朱丽叶特·刘易斯 Juliette Lewis
       诺亚·怀尔 Noah Wyle
       彼德·考约特 Peter Coyote


标  签 詹妮弗·杰森·李 | 美國電影 | 美国电影 | 美国 | 未下载 | 不错不错 | MichaelBortman | EEEEEE

简  介  

  暂无相关剧情先容
  1. Video
  2. ID                                       : 1
  3. Format                                   : AVC
  4. Format/Info                              : Advanced Video Codec
  5. Format profile                           : [email protected]
  6. Format settings                          : CABAC / 4 Ref Frames
  7. Format settings, CABAC                   : Yes
  8. Format settings, Reference frames        : 4 frames
  9. Codec ID                                 : V_MPEG4/ISO/AVC
  10. Duration                                 : 1 h 52 min
  11. Bit rate                                 : 14.2 Mb/s
  12. Width                                    : 1 920 pixels
  13. Height                                   : 1 040 pixels
  14. Display aspect ratio                     : 1.85:1
  15. Frame rate mode                          : Constant
  16. Frame rate                               : 23.976 (24000/1001/189150) FPS
  17. Color space                              : YUV
  18. Chroma subsampling                       : 4:2:0
  19. Bit depth                                : 8 bits
  20. Scan type                                : Progressive
  21. Bits/(Pixel*Frame)                       : 0.296
  22. Stream size                              : 11.1 GiB (98%)
  23. Default                                  : Yes
  24. Forced                                   : No
  25. Color range                              : Limited
  26. Color primaries                          : BT.709
  27. Transfer characteristics                 : BT.709
  28. Matrix coefficients                      : BT.709

  29. Audio
  30. ID                                       : 2
  31. Format                                   : E-AC-3
  32. Format/Info                              : Enhanced AC-3
  33. Commercial name                          : Dolby Digital Plus
  34. Codec ID                                 : A_EAC3
  35. Duration                                 : 1 h 52 min
  36. Bit rate mode                            : Constant
  37. Bit rate                                 : 224 kb/s
  38. Channel(s)                               : 2 channels
  39. Channel layout                           : L R
  40. Sampling rate                            : 48.0 kHz
  41. Frame rate                               : 31.250 FPS (1536 SPF)
  42. Compression mode                         : Lossy
  43. Stream size                              : 180 MiB (2%)
  44. Language                                 : English
  45. Service kind                             : Complete Main
  46. Default                                  : Yes
  47. Forced                                   : No

  48. Text #1
  49. ID                                       : 3
  50. Format                                   : UTF-8
  51. Codec ID                                 : S_TEXT/UTF8
  52. Codec ID/Info                            : UTF-8 Plain Text
  53. Duration                                 : 1 h 47 min
  54. Bit rate                                 : 46 b/s
  55. Count of elements                        : 1227
  56. Stream size                              : 36.7 KiB (0%)
  57. Language                                 : English
  58. Default                                  : No
  59. Forced                                   : No

  60. Text #2
  61. ID                                       : 4
  62. Format                                   : UTF-8
  63. Codec ID                                 : S_TEXT/UTF8
  64. Codec ID/Info                            : UTF-8 Plain Text
  65. Duration                                 : 1 h 47 min
  66. Bit rate                                 : 47 b/s
  67. Count of elements                        : 1272
  68. Stream size                              : 37.4 KiB (0%)
  69. Title                                    : SDH
  70. Language                                 : English
  71. Default                                  : No
  72. Forced                                   : No
复制代码

亲情一线牵/偷腥家属 Crooked.Hearts.1991.1080p.AMZN.WEBRip.DDP2.0.x264-alfaHD 11.29GB-2.png 亲情一线牵/偷腥家属 Crooked.Hearts.1991.1080p.AMZN.WEBRip.DDP2.0.x264-alfaHD 11.29GB-3.png 亲情一线牵/偷腥家属 Crooked.Hearts.1991.1080p.AMZN.WEBRip.DDP2.0.x264-alfaHD 11.29GB-4.png







回复

使用道具 举报

蓝光币
988
发表于 2020-5-2 13:03:45 | 显示全部楼层

这东西我收了!谢谢楼主!蓝光电影网真好!
回复 支持 反对

使用道具 举报

懒得打字嘛,点击右侧快捷回复 【右侧内容,后台自定义】
您需要登录后才可以回帖 登录 | 立即加入

本版积分规则

Archiver|小黑屋| 蓝光电影网 |网站地图

Copyright © 2021 Comsenz Inc. Powered by 蓝光电影网

蓝光电影网

本站内容由用户自主分享和转载自互联网,转载目的在于传递更多信息,并不代表本网赞同其观点和对其真实性负责。

如有侵权、违反国家法律政策行为,请联系我们,我们会第一时间及时清除和处理!

举报反馈邮箱:[email protected]

快速回复 返回顶部 返回列表