找回密码

蓝光电影网

查看: 148|回复: 1

[剧情] 午夜静悄悄 Midnight.Clear.2006.1080p.AMZN.WEBRip.DDP2.0.x264-ISK 7.22GB

[复制链接]
蓝光币
515
发表于 2020-5-2 11:09:29 | 显示全部楼层 |阅读模式
半夜静静静 Midnight.Clear.2006.1080p.AMZN.WEBRip.DDP2.0.x264-ISK 7.22GB-1.png

译  名 半夜静静静
片  名 Midnight Clear
年  代 2006
产  地 美国
类  别 剧情
语  言 英语
上映日期 2006
IMDb评分  6.1/10 from 722 users
IMDb链接  https://www.imdb.com/title/tt0795426
豆瓣评分 0/10 from 0 users
豆瓣链接 https://movie.douban.com/subject/2981442/
片  长 103 分钟
导  演 Dallas Jenkins
主  演 K Callan
       Stephen Baldwin
       Kirk B.R. Woller


标  签 美国 | 自力电影 | 圣诞 | 亲情 | Christian | 2006 | 2000s

简  介  

  一个无家可归的流浪汉,一个加油站的老板,一个孤独的牧师,由于圣诞前夜的偶遇改变了相互的人生..
  1. Video
  2. ID                                       : 2
  3. Format                                   : AVC
  4. Format/Info                              : Advanced Video Codec
  5. Format profile                           : [email protected]
  6. Format settings                          : CABAC / 4 Ref Frames
  7. Format settings, CABAC                   : Yes
  8. Format settings, Reference frames        : 4 frames
  9. Codec ID                                 : V_MPEG4/ISO/AVC
  10. Duration                                 : 1 h 42 min
  11. Bit rate                                 : 9 885 kb/s
  12. Width                                    : 1 920 pixels
  13. Height                                   : 1 080 pixels
  14. Display aspect ratio                     : 16:9
  15. Frame rate mode                          : Constant
  16. Frame rate                               : 23.976 (24000/1001/189150) FPS
  17. Color space                              : YUV
  18. Chroma subsampling                       : 4:2:0
  19. Bit depth                                : 8 bits
  20. Scan type                                : Progressive
  21. Bits/(Pixel*Frame)                       : 0.199
  22. Stream size                              : 7.06 GiB (98%)
  23. Default                                  : Yes
  24. Forced                                   : No
  25. Color range                              : Limited
  26. Color primaries                          : BT.709
  27. Transfer characteristics                 : BT.709
  28. Matrix coefficients                      : BT.709

  29. Audio
  30. ID                                       : 1
  31. Format                                   : E-AC-3
  32. Format/Info                              : Enhanced AC-3
  33. Commercial name                          : Dolby Digital Plus
  34. Codec ID                                 : A_EAC3
  35. Duration                                 : 1 h 42 min
  36. Bit rate mode                            : Constant
  37. Bit rate                                 : 224 kb/s
  38. Channel(s)                               : 2 channels
  39. Channel layout                           : L R
  40. Sampling rate                            : 48.0 kHz
  41. Frame rate                               : 31.250 FPS (1536 SPF)
  42. Compression mode                         : Lossy
  43. Stream size                              : 164 MiB (2%)
  44. Service kind                             : Complete Main
  45. Default                                  : Yes
  46. Forced                                   : No

  47. Text
  48. ID                                       : 3
  49. Format                                   : UTF-8
  50. Codec ID                                 : S_TEXT/UTF8
  51. Codec ID/Info                            : UTF-8 Plain Text
  52. Duration                                 : 1 h 41 min
  53. Bit rate                                 : 56 b/s
  54. Count of elements                        : 1645
  55. Stream size                              : 42.0 KiB (0%)
  56. Language                                 : English
  57. Default                                  : Yes
  58. Forced                                   : No
复制代码

半夜静静静 Midnight.Clear.2006.1080p.AMZN.WEBRip.DDP2.0.x264-ISK 7.22GB-2.png 半夜静静静 Midnight.Clear.2006.1080p.AMZN.WEBRip.DDP2.0.x264-ISK 7.22GB-3.png 半夜静静静 Midnight.Clear.2006.1080p.AMZN.WEBRip.DDP2.0.x264-ISK 7.22GB-4.png







回复

使用道具 举报

蓝光币
983
发表于 2020-5-2 12:59:06 | 显示全部楼层
楼主发贴辛苦了,谢谢楼主分享!我觉得蓝光电影网是注册对了!
回复 支持 反对

使用道具 举报

懒得打字嘛,点击右侧快捷回复 【右侧内容,后台自定义】
您需要登录后才可以回帖 登录 | 立即加入

本版积分规则

Archiver|小黑屋| 蓝光电影网 |网站地图

Copyright © 2021 Comsenz Inc. Powered by 蓝光电影网

蓝光电影网

本站内容由用户自主分享和转载自互联网,转载目的在于传递更多信息,并不代表本网赞同其观点和对其真实性负责。

如有侵权、违反国家法律政策行为,请联系我们,我们会第一时间及时清除和处理!

举报反馈邮箱:[email protected]

快速回复 返回顶部 返回列表