找回密码

蓝光电影网

查看: 212|回复: 0

[剧情] 无面浪人 Masterless.2015.1080p.AMZN.WEBRip.DD5.1.x264-ISK 1.93GB

[复制链接]
蓝光币
519
发表于 2020-5-2 11:10:20 | 显示全部楼层 |阅读模式
无面游勇 Masterless.2015.1080p.AMZN.WEBRip.DD5.1.x264-ISK 1.93GB-1.png

译  名 无面游勇
片  名 Masterless
年  代 2015
产  地 美国
类  别 剧情 / 奇异
语  言 日语 / 英语
IMDb评分  3.6/10 from 116 users
IMDb链接  https://www.imdb.com/title/tt3417172
豆瓣评分 0/10 from 0 users
豆瓣链接 https://movie.douban.com/subject/26722404/
片  长 85分钟
导  演 Craig Shimahara
编  剧 Craig Shimahara
主  演 亚当·拉沃格纳 Adam LaVorgna
       Yutaka Takeuchi
       Eijiro Ozaki


简  介  

  Kane Madison is an architect working in Los Angeles while his doppelganger-like spirit, an eighteenth century Ronin, wanders a parallel netherworld of masked demons and Japanese swordsmen. When tragedy strikes, Kane embarks on a journey of faith which prompts the Ronin to seek out his true master in the spirit world... both will face many battles along their interweaving roads to peace.
  1. Video
  2. ID                                       : 2
  3. Format                                   : AVC
  4. Format/Info                              : Advanced Video Codec
  5. Format profile                           : [email protected]
  6. Format settings                          : CABAC / 4 Ref Frames
  7. Format settings, CABAC                   : Yes
  8. Format settings, Reference frames        : 4 frames
  9. Codec ID                                 : V_MPEG4/ISO/AVC
  10. Duration                                 : 1 h 25 min
  11. Bit rate                                 : 2 608 kb/s
  12. Width                                    : 1 920 pixels
  13. Height                                   : 1 080 pixels
  14. Display aspect ratio                     : 16:9
  15. Frame rate mode                          : Constant
  16. Frame rate                               : 23.976 (24000/1001/189150) FPS
  17. Color space                              : YUV
  18. Chroma subsampling                       : 4:2:0
  19. Bit depth                                : 8 bits
  20. Scan type                                : Progressive
  21. Bits/(Pixel*Frame)                       : 0.052
  22. Stream size                              : 1.55 GiB (80%)
  23. Default                                  : Yes
  24. Forced                                   : No
  25. Color range                              : Limited
  26. Color primaries                          : BT.709
  27. Transfer characteristics                 : BT.709
  28. Matrix coefficients                      : BT.709

  29. Audio
  30. ID                                       : 1
  31. Format                                   : E-AC-3
  32. Format/Info                              : Enhanced AC-3
  33. Commercial name                          : Dolby Digital Plus
  34. Codec ID                                 : A_EAC3
  35. Duration                                 : 1 h 25 min
  36. Bit rate mode                            : Constant
  37. Bit rate                                 : 640 kb/s
  38. Channel(s)                               : 6 channels
  39. Channel layout                           : L R C LFE Ls Rs
  40. Sampling rate                            : 48.0 kHz
  41. Frame rate                               : 31.250 FPS (1536 SPF)
  42. Compression mode                         : Lossy
  43. Stream size                              : 390 MiB (20%)
  44. Service kind                             : Complete Main
  45. Default                                  : Yes
  46. Forced                                   : No

  47. Text
  48. ID                                       : 3
  49. Format                                   : UTF-8
  50. Codec ID                                 : S_TEXT/UTF8
  51. Codec ID/Info                            : UTF-8 Plain Text
  52. Duration                                 : 1 h 23 min
  53. Bit rate                                 : 42 b/s
  54. Count of elements                        : 970
  55. Stream size                              : 25.8 KiB (0%)
  56. Language                                 : English
  57. Default                                  : Yes
  58. Forced                                   : No
复制代码

无面游勇 Masterless.2015.1080p.AMZN.WEBRip.DD5.1.x264-ISK 1.93GB-2.png 无面游勇 Masterless.2015.1080p.AMZN.WEBRip.DD5.1.x264-ISK 1.93GB-3.png 无面游勇 Masterless.2015.1080p.AMZN.WEBRip.DD5.1.x264-ISK 1.93GB-4.png







回复

使用道具 举报

懒得打字嘛,点击右侧快捷回复 【右侧内容,后台自定义】
您需要登录后才可以回帖 登录 | 立即加入

本版积分规则

Archiver|小黑屋| 蓝光电影网 |网站地图

Copyright © 2021 Comsenz Inc. Powered by 蓝光电影网

蓝光电影网

本站内容由用户自主分享和转载自互联网,转载目的在于传递更多信息,并不代表本网赞同其观点和对其真实性负责。

如有侵权、违反国家法律政策行为,请联系我们,我们会第一时间及时清除和处理!

举报反馈邮箱:[email protected]

快速回复 返回顶部 返回列表