找回密码

蓝光电影网

查看: 2107|回复: 10

[喜剧] 霹雳五号续集/机器人在纽约 Short.Circuit.2.1988.1080p.BluRay.x264-TENEIGHTY 6.55GB

[复制链接]
蓝光币
623
发表于 2018-9-4 09:45:06 | 显示全部楼层 |阅读模式

轰隆五号续集/机械人在纽约 Short.Circuit.2.1988.1080p.BluRay.x264-TENEIGHTY 6.55GB-1.jpg
◎译  名 轰隆五号续集/机械人在纽约/围追五号行动续
◎片  名 Short Circuit 2
◎年  代 1988
◎产  地 美国
◎类  别 笑剧/家庭/科幻
◎语  言 英语
◎上映日期 1988-07-06(美国)
◎豆瓣评分 8.1/10 from 2,366 users
◎豆瓣链接 https://movie.douban.com/subject/1294209/
◎片  长 110 分钟
◎导  演 肯尼斯?约翰逊 Kenneth Johnson
◎主  演 Tim Blaney
      费舍·史蒂芬斯 Fisher Stevens
      迈克尔·麦基恩 Michael McKean
      辛西娅·吉布 Cynthia Gibb

◎简  介

  机械人乔尼五号做着与其他机械人,比如终结者、变形金刚、机械战警,完全分歧的事。
  乔尼五号不是想统治地球的机械魔王,也不是任由人类左右的机械仆从。他拒绝认可自己是一种物品,甚至机械。他高声公布“我也是一种生命”,渴望人类采取他。他尽力向人类进修,并在各方面向人类靠近。为此他穿上衣服,还上教堂向神父询问灵魂的奥秘。
  乔尼五号天真善良,乐于助人,不谙世事,恍如孩童。他尽力帮助设想者本杰明生产玩具,还帮他谈恋爱。这一点也使他出格轻易为好人操纵。开初是帮小偷“拿”轿车里的声响,后来是帮奥斯卡“取出”银行金库里的钻石,还被奥斯卡一伙打得半死。可是,当他大白成了好人的爪牙后,他就象一切的人类豪杰一样,冒着生命危险,将罪犯拘系归案。终极乔尼五号也被美国政府所接管,成为一位美国百姓。
  乔尼五号让我们看到人与机械人的另一种关系:朋友。
  乔尼五号正是人类想要的机械人范例:聪明、善良但表面懦弱。他与人类的关系是同等的,不存在谁奴役谁,谁统治谁的题目,是相互帮助互惠互利的朋友。

  1. Video
  2. ID                                       : 1
  3. Format                                   : AVC
  4. Format/Info                              : Advanced Video Codec
  5. Format profile                           : [url=/cdn-cgi/l/email-protection][email protected][/url]
  6. Format settings                          : CABAC / 4 Ref Frames
  7. Format settings, CABAC                   : Yes
  8. Format settings, ReFrames                : 4 frames
  9. Muxing mode                              : Header stripping
  10. Codec ID                                 : V_MPEG4/ISO/AVC
  11. Duration                                 : 1 h 50 min
  12. Bit rate                                 : 8 052 kb/s
  13. Width                                    : 1 920 pixels
  14. Height                                   : 1 040 pixels
  15. Display aspect ratio                     : 1.85:1
  16. Frame rate mode                          : Constant
  17. Frame rate                               : 23.976 (24000/1001) FPS
  18. Color space                              : YUV
  19. Chroma subsampling                       : 4:2:0
  20. Bit depth                                : 8 bits
  21. Scan type                                : Progressive
  22. Bits/(Pixel*Frame)                       : 0.168
  23. Stream size                              : 6.08 GiB (93%)
  24. Writing library                          : x264 core 115 r1937 aa21558
  25. Encoding settings                        : cabac=1 / ref=4 / deblock=1:0:0 / analyse=0x3:0x133 / me=umh / subme=7 / psy=1 / psy_rd=1.00:0.00 / mixed_ref=1 / me_range=16 / chroma_me=1 / trellis=1 / 8x8dct=1 / cqm=0 / deadzone=21,11 / fast_pskip=0 / chroma_qp_offset=-2 / threads=18 / sliced_threads=0 / nr=0 / decimate=1 / interlaced=0 / bluray_compat=0 / constrained_intra=0 / bframes=3 / b_pyramid=2 / b_adapt=1 / b_bias=0 / direct=1 / weightb=1 / open_gop=0 / weightp=2 / keyint=250 / keyint_min=23 / scenecut=40 / intra_refresh=0 / rc_lookahead=40 / rc=2pass / mbtree=1 / bitrate=8052 / ratetol=1.0 / qcomp=0.60 / qpmin=0 / qpmax=69 / qpstep=4 / cplxblur=20.0 / qblur=0.5 / ip_ratio=1.40 / aq=1:1.00
  26. Language                                 : English
  27. Default                                  : Yes
  28. Forced                                   : No

  29. Audio
  30. ID                                       : 2
  31. Format                                   : AC-3
  32. Format/Info                              : Audio Coding 3
  33. Muxing mode                              : Header stripping
  34. Codec ID                                 : A_AC3
  35. Duration                                 : 1 h 50 min
  36. Bit rate mode                            : Constant
  37. Bit rate                                 : 448 kb/s
  38. Channel(s)                               : 2 channels
  39. Channel positions                        : Front: L R
  40. Sampling rate                            : 48.0 kHz
  41. Frame rate                               : 31.250 FPS (1536 SPF)
  42. Bit depth                                : 16 bits
  43. Compression mode                         : Lossy
  44. Stream size                              : 354 MiB (5%)
  45. Service kind                             : Complete Main
  46. Default                                  : Yes
  47. Forced                                   : No
复制代码

复制代码

轰隆五号续集/机械人在纽约 Short.Circuit.2.1988.1080p.BluRay.x264-TENEIGHTY 6.55GB-2.png 轰隆五号续集/机械人在纽约 Short.Circuit.2.1988.1080p.BluRay.x264-TENEIGHTY 6.55GB-3.png 轰隆五号续集/机械人在纽约 Short.Circuit.2.1988.1080p.BluRay.x264-TENEIGHTY 6.55GB-4.png






回复

使用道具 举报

懒得打字嘛,点击右侧快捷回复 【右侧内容,后台自定义】
您需要登录后才可以回帖 登录 | 立即加入

本版积分规则

Archiver|小黑屋| 蓝光电影网 |网站地图

Copyright © 2021 Comsenz Inc. Powered by 蓝光电影网

蓝光电影网

本站内容由用户自主分享和转载自互联网,转载目的在于传递更多信息,并不代表本网赞同其观点和对其真实性负责。

如有侵权、违反国家法律政策行为,请联系我们,我们会第一时间及时清除和处理!

举报反馈邮箱:[email protected]

快速回复 返回顶部 返回列表