找回密码

蓝光电影网

查看: 1995|回复: 4

[传记] 寻找梦幻岛/不老的传说 Finding.Neverland.2004.1080p.BluRay.x264-TiMELORDS 6.56GB

[复制链接]
蓝光币
623
发表于 2018-9-4 09:45:27 | 显示全部楼层 |阅读模式

寻觅梦幻岛/不老的传闻 Finding.Neverland.2004.1080p.BluRay.x264-TiMELORDS 6.56GB-1.jpg
◎译  名 寻觅梦幻岛/不老的传闻/寻觅新乐园/小飞侠前传之魔幻童心
◎片  名 Finding Neverland
◎年  代 2004
◎产  地 美国/英国
◎类  别 列传/剧情/家庭
◎语  言 英语
◎上映日期 2004-09-04(威尼斯电影节)/2004-11-12(美国)
◎豆瓣评分 7.8/10 from 40,869 users
◎豆瓣链接 https://movie.douban.com/subject/1308831/
◎片  长 106 分钟
◎导  演 马克·福斯特 Marc Forster
◎主  演 约翰尼·德普 Johnny Depp
      凯特·温丝莱特 Kate Winslet
      达斯汀·霍夫曼 Dustin Hoffman
      弗莱迪·海默 Freddie Highmore
      朱莉·克里斯蒂 Julie Christie
      拉妲·米契尔 Radha Mitchell
      伊恩·哈特 Ian Hart
      凯特·马伯里 Kate Maberly
      凯莉·麦克唐纳 Kelly Macdonald
      麦肯锡·克鲁克 Mackenzie Crook
      托比·琼斯 Toby Jones

◎简  介

  作家巴里(约翰尼·德普 Johnny Depp饰)正处于灵感干涸期。他天天经过公园的时辰,城市看见里面有一帮小孩在游玩。他停下脚步来观察,本来孩子在玩海盗游戏,孩子们还热情约请他加入海盗队伍。巴里成了一个大孩子,在队伍中虽然横跨一个头,却玩得不亦乐乎——道具、脚色、各色情节、公园酿成一个欢畅的空想天下。这段履历,成了巴里创作《小飞侠》的灵感源泉。
  孩子的母亲(凯特·温丝莱特 Kate Winslet 饰)是一个孀妇,她也遭到了这里欢畅的氛围传染。巴里和他们相处就像一家人一样,享用着纯真的欢畅,但是也难免招人闲话。而巴里的妻子,也毕竟只属于现实天下,走不尽巴里的心里。
  《小飞侠》的脱稿上演,遭到了众人的质疑。但是表演后当地的反应,证实了巴里的对峙是正确的。但这时,巴里和孩子们正面临着一场来自现实天下的庞大冲击,他们善良的母亲,正在离他们远去……

◎获奖情况

  第77届奥斯卡金像奖  (2005)
  最好影片(提名) 理查德·N·格莱德斯坦 / 内莉·贝尔弗劳尔
  最好男配角(提名) 约翰尼·德普
  最好改编剧本(提名) 大卫·麦基
  最好剪辑(提名) Matt Chesse
  最好艺术指导(提名) 杰玛·杰克逊 / 特丽莎·爱德华兹
  最好打扮设想(提名) 亚历山德拉·拜恩
  最好原创配乐 詹恩·凯兹梅利克

  第58届英国电影学院奖  (2005)
  电影奖 最好影片(提名) 理查德·N·格莱德斯坦 / 内莉·贝尔弗劳尔
  电影奖 最好导演(提名) 马克·福斯特
  电影奖 最好男配角(提名) 约翰尼·德普
  电影奖 最好女配角(提名) 凯特·温丝莱特
  电影奖 最好女配角(提名) 朱莉·克里斯蒂
  电影奖 最好改编剧本(提名) 大卫·麦基
  电影奖 最好摄影(提名) Roberto Schaefer
  电影奖 最好化装/发型(提名) Christine Blundell
  电影奖 最好打扮设想(提名) 亚历山德拉·拜恩
  电影奖 最好艺术指导(提名) 杰玛·杰克逊
  电影奖 最好原创音乐(提名) 詹恩·凯兹梅利克

  第14届MTV电影奖  (2005)
  MTV电影奖 最具冲破男演员(提名) 弗莱迪·海默

  1. Video
  2. ID                                       : 1
  3. Format                                   : AVC
  4. Format/Info                              : Advanced Video Codec
  5. Format profile                           : [url=/cdn-cgi/l/email-protection][email protected][/url]
  6. Format settings                          : CABAC / 5 Ref Frames
  7. Format settings, CABAC                   : Yes
  8. Format settings, ReFrames                : 5 frames
  9. Codec ID                                 : V_MPEG4/ISO/AVC
  10. Duration                                 : 1 h 41 min
  11. Bit rate                                 : 8 647 kb/s
  12. Width                                    : 1 920 pixels
  13. Height                                   : 816 pixels
  14. Display aspect ratio                     : 2.35:1
  15. Frame rate mode                          : Constant
  16. Frame rate                               : 23.976 (24000/1001) FPS
  17. Color space                              : YUV
  18. Chroma subsampling                       : 4:2:0
  19. Bit depth                                : 8 bits
  20. Scan type                                : Progressive
  21. Bits/(Pixel*Frame)                       : 0.230
  22. Stream size                              : 5.98 GiB (91%)
  23. Title                                    : Finding Neverland 1080p x264
  24. Writing library                          : x264 core 60 r877 c74a8e2
  25. Encoding settings                        : cabac=1 / ref=5 / deblock=1:-3:-3 / analyse=0x3:0x133 / me=umh / subme=7 / brdo=1 / mixed_ref=1 / me_range=16 / chroma_me=1 / trellis=1 / 8x8dct=1 / cqm=0 / deadzone=6,12 / chroma_qp_offset=0 / threads=3 / nr=0 / decimate=1 / mbaff=0 / bframes=3 / b_pyramid=1 / b_adapt=1 / b_bias=0 / direct=1 / wpredb=1 / bime=1 / keyint=250 / keyint_min=25 / scenecut=40(pre) / rc=2pass / bitrate=8647 / ratetol=1.0 / rceq=\'blurCplx^(1-qComp)\' / qcomp=1.00 / qpmin=10 / qpmax=51 / qpstep=4 / cplxblur=20.0 / qblur=0.5 / ip_ratio=1.40 / pb_ratio=1.30 / aq=2:1.10
  26. Default                                  : Yes
  27. Forced                                   : No

  28. Audio
  29. ID                                       : 2
  30. Format                                   : AC-3
  31. Format/Info                              : Audio Coding 3
  32. Codec ID                                 : A_AC3
  33. Duration                                 : 1 h 41 min
  34. Bit rate mode                            : Constant
  35. Bit rate                                 : 640 kb/s
  36. Channel(s)                               : 6 channels
  37. Channel positions                        : Front: L C R, Side: L R, LFE
  38. Sampling rate                            : 48.0 kHz
  39. Frame rate                               : 31.250 FPS (1536 SPF)
  40. Bit depth                                : 16 bits
  41. Compression mode                         : Lossy
  42. Stream size                              : 463 MiB (7%)
  43. Title                                    : AC3 640kbit
  44. Language                                 : English
  45. Service kind                             : Complete Main
  46. Default                                  : Yes
  47. Forced                                   : No
复制代码

复制代码

寻觅梦幻岛/不老的传闻 Finding.Neverland.2004.1080p.BluRay.x264-TiMELORDS 6.56GB-2.png 寻觅梦幻岛/不老的传闻 Finding.Neverland.2004.1080p.BluRay.x264-TiMELORDS 6.56GB-3.png 寻觅梦幻岛/不老的传闻 Finding.Neverland.2004.1080p.BluRay.x264-TiMELORDS 6.56GB-4.png






回复

使用道具 举报

懒得打字嘛,点击右侧快捷回复 【右侧内容,后台自定义】
您需要登录后才可以回帖 登录 | 立即加入

本版积分规则

Archiver|小黑屋| 蓝光电影网 |网站地图

Copyright © 2021 Comsenz Inc. Powered by 蓝光电影网

蓝光电影网

本站内容由用户自主分享和转载自互联网,转载目的在于传递更多信息,并不代表本网赞同其观点和对其真实性负责。

如有侵权、违反国家法律政策行为,请联系我们,我们会第一时间及时清除和处理!

举报反馈邮箱:[email protected]

快速回复 返回顶部 返回列表