找回密码

蓝光电影网

查看: 426|回复: 0

[喜剧] 血染莎剧场 Theater.of.Blood.1973.1080p.BluRay.REMUX.AVC.DTS-HD.MA.2.0-FGT 15.38GB

[复制链接]
蓝光币
623
发表于 2018-9-4 09:51:54 | 显示全部楼层 |阅读模式

血染莎戏院 Theater.of.Blood.1973.1080p.BluRay.REMUX.AVC.DTS-HD.MA.2.0-FGT 15.38GB-1.jpg
◎译  名 血染莎戏院
◎片  名 Theater of Blood
◎年  代 1973
◎产  地 英国
◎类  别 笑剧/悬疑/可骇
◎语  言 英语
◎上映日期 1973-04-05
◎豆瓣评分 7.2/10 from 64 users
◎豆瓣链接 https://movie.douban.com/subject/1295950/
◎片  长 104 分钟
◎导  演 道格拉斯·希考克斯 Douglas Hickox
◎主  演 Vincent Price
      Diana Rigg
      Diana Dors

◎简  介

  《血染莎戏院》剧情先容:
  由道格拉斯.希克斯导演的这部影片,报告一位莎剧演员(文森特.普赖斯饰)因得不到最好莎剧演员奖,遂迁怒八个评判,逐一用莎剧中的杀人手法将他们杀死。故工作节新奇出奇,手法灵活,上构想别具特点的黑色笑剧,最首要的兴趣在于那八场分歧的谋杀。文森特以出色的演技联贯全场。

  1. Video
  2. ID                                       : 1
  3. Format                                   : AVC
  4. Format/Info                              : Advanced Video Codec
  5. Format profile                           : [url=/cdn-cgi/l/email-protection][email protected][/url]
  6. Format settings                          : CABAC / 3 Ref Frames
  7. Format settings, CABAC                   : Yes
  8. Format settings, ReFrames                : 3 frames
  9. Codec ID                                 : V_MPEG4/ISO/AVC
  10. Duration                                 : 1 h 44 min
  11. Bit rate mode                            : Variable
  12. Bit rate                                 : 18.0 Mb/s
  13. Maximum bit rate                         : 36.0 Mb/s
  14. Width                                    : 1 920 pixels
  15. Height                                   : 1 080 pixels
  16. Display aspect ratio                     : 16:9
  17. Frame rate mode                          : Constant
  18. Frame rate                               : 23.976 (24000/1001) FPS
  19. Standard                                 : NTSC
  20. Color space                              : YUV
  21. Chroma subsampling                       : 4:2:0
  22. Bit depth                                : 8 bits
  23. Scan type                                : Progressive
  24. Bits/(Pixel*Frame)                       : 0.362
  25. Stream size                              : 13.1 GiB (85%)
  26. Title                                    : Theater.of.Blood.1973.1080p.BluRay.REMUX.AVC.DTS-HD.MA.2.0-FGT
  27. Writing library                          : x264pro - Adobe CS Exporter Plug-in
  28. Encoding settings                        : cabac=1 / ref=4 / deblock=1:-1:-1 / analyse=0x3:0x113 / me=umh / subme=8 / psy=1 / psy_rd=1.00:0.15 / mixed_ref=1 / me_range=16 / chroma_me=1 / trellis=1 / 8x8dct=1 / cqm=0 / deadzone=21,11 / fast_pskip=1 / chroma_qp_offset=-3 / threads=12 / lookahead_threads=2 / sliced_threads=0 / slices=4 / nr=0 / decimate=1 / interlaced=0 / bluray_compat=1 / constrained_intra=0 / bframes=3 / b_pyramid=1 / b_adapt=2 / b_bias=0 / direct=3 / weightb=1 / open_gop=0 / weightp=1 / keyint=24 / keyint_min=1 / scenecut=40 / intra_refresh=0 / rc_lookahead=24 / rc=2pass / mbtree=1 / bitrate=18000 / ratetol=1.0 / qcomp=0.60 / qpmin=0 / qpmax=69 / qpstep=4 / cplxblur=20.0 / qblur=0.5 / vbv_maxrate=36000 / vbv_bufsize=27000 / nal_hrd=vbr / ip_ratio=1.40 / aq=1:1.00
  29. Language                                 : English
  30. Default                                  : No
  31. Forced                                   : No
  32. Color range                              : Limited
  33. Color primaries                          : BT.709
  34. Transfer characteristics                 : BT.709
  35. Matrix coefficients                      : BT.709

  36. Audio #1
  37. ID                                       : 2
  38. Format                                   : DTS
  39. Format/Info                              : Digital Theater Systems
  40. Format profile                           : MA / Core
  41. Codec ID                                 : A_DTS
  42. Duration                                 : 1 h 44 min
  43. Bit rate mode                            : Variable / Constant
  44. Bit rate                                 : 1 604 kb/s / 1 509 kb/s
  45. Channel(s)                               : 2 channels
  46. Channel positions                        : Front: L R
  47. Sampling rate                            : 48.0 kHz
  48. Frame rate                               : 93.750 FPS (512 SPF)
  49. Bit depth                                : 16 bits
  50. Compression mode                         : Lossless / Lossy
  51. Stream size                              : 1.17 GiB (8%)
  52. Title                                    : Theater.of.Blood.1973.1080p.BluRay.REMUX.AVC.DTS-HD.MA.2.0-FGT
  53. Language                                 : English
  54. Default                                  : Yes
  55. Forced                                   : No

  56. Audio #2
  57. ID                                       : 3
  58. Format                                   : DTS
  59. Format/Info                              : Digital Theater Systems
  60. Codec ID                                 : A_DTS
  61. Duration                                 : 1 h 44 min
  62. Bit rate mode                            : Constant
  63. Bit rate                                 : 1 509 kb/s
  64. Channel(s)                               : 2 channels
  65. Channel positions                        : Front: L R
  66. Sampling rate                            : 48.0 kHz
  67. Frame rate                               : 93.750 FPS (512 SPF)
  68. Bit depth                                : 16 bits
  69. Compression mode                         : Lossy
  70. Stream size                              : 1.10 GiB (7%)
  71. Title                                    : Theater.of.Blood.1973.1080p.BluRay.REMUX.AVC.DTS-HD.MA.2.0-FGT
  72. Language                                 : English
  73. Default                                  : No
  74. Forced                                   : No

  75. Text
  76. ID                                       : 4
  77. Format                                   : PGS
  78. Muxing mode                              : zlib
  79. Codec ID                                 : S_HDMV/PGS
  80. Codec ID/Info                            : Picture based subtitle format used on BDs/HD-DVDs
  81. Duration                                 : 1 h 39 min
  82. Bit rate                                 : 25.3 kb/s
  83. Count of elements                        : 2060
  84. Stream size                              : 18.0 MiB (0%)
  85. Title                                    : English-PGS
  86. Language                                 : English
  87. Default                                  : Yes
  88. Forced                                   : No

  89. Menu
  90. 00:00:00.000                             : en:Chapter 01
  91. 00:09:26.190                             : en:Chapter 02
  92. 00:14:46.385                             : en:Chapter 03
  93. 00:25:55.845                             : en:Chapter 04
  94. 00:36:37.570                             : en:Chapter 05
  95. 00:45:42.573                             : en:Chapter 06
  96. 00:51:33.840                             : en:Chapter 07
  97. 01:00:12.025                             : en:Chapter 08
  98. 01:08:54.922                             : en:Chapter 09
  99. 01:18:29.287                             : en:Chapter 10
  100. 01:25:46.850                             : en:Chapter 11
  101. 01:34:10.353                             : en:Chapter 12
复制代码

复制代码

血染莎戏院 Theater.of.Blood.1973.1080p.BluRay.REMUX.AVC.DTS-HD.MA.2.0-FGT 15.38GB-2.png 血染莎戏院 Theater.of.Blood.1973.1080p.BluRay.REMUX.AVC.DTS-HD.MA.2.0-FGT 15.38GB-3.png 血染莎戏院 Theater.of.Blood.1973.1080p.BluRay.REMUX.AVC.DTS-HD.MA.2.0-FGT 15.38GB-4.png






回复

使用道具 举报

懒得打字嘛,点击右侧快捷回复 【右侧内容,后台自定义】
您需要登录后才可以回帖 登录 | 立即加入

本版积分规则

Archiver|小黑屋| 蓝光电影网 |网站地图

Copyright © 2021 Comsenz Inc. Powered by 蓝光电影网

蓝光电影网

本站内容由用户自主分享和转载自互联网,转载目的在于传递更多信息,并不代表本网赞同其观点和对其真实性负责。

如有侵权、违反国家法律政策行为,请联系我们,我们会第一时间及时清除和处理!

举报反馈邮箱:[email protected]

快速回复 返回顶部 返回列表