找回密码

蓝光电影网

查看: 754|回复: 1

[科幻] 最机密第三站/毒气特务战 The.Satan.Bug.1965.1080p.BluRay.REMUX.AVC.DTS-HD.MA.2.0-FGT 29.49GB

[复制链接]
蓝光币
623
发表于 2018-9-4 09:52:33 | 显示全部楼层 |阅读模式

最机密第三站/毒气特务战 The.Satan.Bug.1965.1080p.BluRay.REMUX.AVC.DTS-HD.MA.2.0-FGT 29.49GB-1.jpg
◎译  名 最机密第三站/毒气特务战/魔菌
◎片  名 The Satan Bug
◎年  代 1965
◎产  地 美国
◎类  别 科幻/惊悚
◎语  言 英语
◎上映日期 1965-03-26
◎豆瓣评分 /10 from 0 users
◎豆瓣链接 https://movie.douban.com/subject/1295657/
◎片  长 114 分钟
◎导  演 约翰·斯特奇斯 John Sturges
◎主  演 乔治·马海尔斯 George Maharis
      理查德·贝斯哈特 Richard Basehart
      Anne Francis

◎简  介

  None

  1. Video
  2. ID                                       : 1
  3. Format                                   : AVC
  4. Format/Info                              : Advanced Video Codec
  5. Format profile                           : [url=/cdn-cgi/l/email-protection][email protected][/url]
  6. Format settings                          : CABAC / 4 Ref Frames
  7. Format settings, CABAC                   : Yes
  8. Format settings, ReFrames                : 4 frames
  9. Codec ID                                 : V_MPEG4/ISO/AVC
  10. Duration                                 : 1 h 54 min
  11. Bit rate mode                            : Variable
  12. Bit rate                                 : 34.0 Mb/s
  13. Width                                    : 1 920 pixels
  14. Height                                   : 1 080 pixels
  15. Display aspect ratio                     : 16:9
  16. Frame rate mode                          : Constant
  17. Frame rate                               : 24.000 FPS
  18. Standard                                 : NTSC
  19. Color space                              : YUV
  20. Chroma subsampling                       : 4:2:0
  21. Bit depth                                : 8 bits
  22. Scan type                                : Progressive
  23. Bits/(Pixel*Frame)                       : 0.683
  24. Stream size                              : 27.0 GiB (92%)
  25. Title                                    : The.Satan.Bug.1965.1080p.BluRay.REMUX.AVC.DTS-HD.MA.2.0-FGT
  26. Language                                 : English
  27. Default                                  : No
  28. Forced                                   : No
  29. Color range                              : Full
  30. Color primaries                          : BT.709
  31. Transfer characteristics                 : BT.709
  32. Matrix coefficients                      : BT.709

  33. Audio #1
  34. ID                                       : 2
  35. Format                                   : DTS
  36. Format/Info                              : Digital Theater Systems
  37. Format profile                           : MA / Core
  38. Codec ID                                 : A_DTS
  39. Duration                                 : 1 h 54 min
  40. Bit rate mode                            : Variable / Constant
  41. Bit rate                                 : 1 536 kb/s / 1 509 kb/s
  42. Channel(s)                               : 2 channels
  43. Channel positions                        : Front: L R
  44. Sampling rate                            : 48.0 kHz
  45. Frame rate                               : 93.750 FPS (512 SPF)
  46. Bit depth                                : 16 bits
  47. Compression mode                         : Lossless / Lossy
  48. Stream size                              : 1.25 GiB (4%)
  49. Title                                    : The.Satan.Bug.1965.1080p.BluRay.REMUX.AVC.DTS-HD.MA.2.0-FGT
  50. Language                                 : English
  51. Default                                  : Yes
  52. Forced                                   : No

  53. Audio #2
  54. ID                                       : 3
  55. Format                                   : DTS
  56. Format/Info                              : Digital Theater Systems
  57. Codec ID                                 : A_DTS
  58. Duration                                 : 1 h 54 min
  59. Bit rate mode                            : Constant
  60. Bit rate                                 : 1 509 kb/s
  61. Channel(s)                               : 2 channels
  62. Channel positions                        : Front: L R
  63. Sampling rate                            : 48.0 kHz
  64. Frame rate                               : 93.750 FPS (512 SPF)
  65. Bit depth                                : 16 bits
  66. Compression mode                         : Lossy
  67. Stream size                              : 1.21 GiB (4%)
  68. Title                                    : The.Satan.Bug.1965.1080p.BluRay.REMUX.AVC.DTS-HD.MA.2.0-FGT
  69. Language                                 : English
  70. Default                                  : No
  71. Forced                                   : No

  72. Menu
  73. 00:00:00.000                             : en:Chapter 01
  74. 00:02:25.000                             : en:Chapter 02
  75. 00:08:59.291                             : en:Chapter 03
  76. 00:15:41.375                             : en:Chapter 04
  77. 00:23:51.250                             : en:Chapter 05
  78. 00:29:17.541                             : en:Chapter 06
  79. 00:33:14.333                             : en:Chapter 07
  80. 00:38:17.666                             : en:Chapter 08
  81. 00:44:21.250                             : en:Chapter 09
  82. 00:49:23.958                             : en:Chapter 10
  83. 00:54:05.916                             : en:Chapter 11
  84. 01:03:29.625                             : en:Chapter 12
  85. 01:08:34.833                             : en:Chapter 13
  86. 01:12:50.208                             : en:Chapter 14
  87. 01:21:03.458                             : en:Chapter 15
  88. 01:28:50.791                             : en:Chapter 16
  89. 01:35:33.083                             : en:Chapter 17
  90. 01:38:38.125                             : en:Chapter 18
  91. 01:43:36.125                             : en:Chapter 19
  92. 01:46:59.458                             : en:Chapter 20
  93. 01:50:44.291                             : en:Chapter 21
复制代码

复制代码

最机密第三站/毒气特务战 The.Satan.Bug.1965.1080p.BluRay.REMUX.AVC.DTS-HD.MA.2.0-FGT 29.49GB-2.png 最机密第三站/毒气特务战 The.Satan.Bug.1965.1080p.BluRay.REMUX.AVC.DTS-HD.MA.2.0-FGT 29.49GB-3.png 最机密第三站/毒气特务战 The.Satan.Bug.1965.1080p.BluRay.REMUX.AVC.DTS-HD.MA.2.0-FGT 29.49GB-4.png






回复

使用道具 举报

懒得打字嘛,点击右侧快捷回复 【右侧内容,后台自定义】
您需要登录后才可以回帖 登录 | 立即加入

本版积分规则

Archiver|小黑屋| 蓝光电影网 |网站地图

Copyright © 2021 Comsenz Inc. Powered by 蓝光电影网

蓝光电影网

本站内容由用户自主分享和转载自互联网,转载目的在于传递更多信息,并不代表本网赞同其观点和对其真实性负责。

如有侵权、违反国家法律政策行为,请联系我们,我们会第一时间及时清除和处理!

举报反馈邮箱:[email protected]

快速回复 返回顶部 返回列表