找回密码

蓝光电影网

查看: 683|回复: 0

[恐怖] 嗜血伯爵 Taste.the.Blood.of.Dracula.1970.1080p.BluRay.REMUX.AVC.DTS-HD.MA.2.0-FGT 23.12GB

[复制链接]
蓝光币
623
发表于 2018-9-4 09:53:02 | 显示全部楼层 |阅读模式

嗜血伯爵 Taste.the.Blood.of.Dracula.1970.1080p.BluRay.REMUX.AVC.DTS-HD.MA.2.0-FGT 23.12GB-1.jpg
◎译  名 嗜血伯爵
◎片  名 Taste the Blood of Dracula
◎年  代 1970
◎产  地 英国
◎类  别 可骇/恋爱
◎语  言 英语
◎上映日期 1970-05-07
◎豆瓣评分 /10 from 0 users
◎豆瓣链接 https://movie.douban.com/subject/3160811/
◎片  长 USA: 91 分钟/UK: 95 分钟(uncut)
◎导  演 Peter Sasdy
◎主  演 Christopher Lee

◎简  介

  None

  1. Video
  2. ID                                       : 1
  3. Format                                   : AVC
  4. Format/Info                              : Advanced Video Codec
  5. Format profile                           : [url=/cdn-cgi/l/email-protection][email protected][/url]
  6. Format settings                          : CABAC / 4 Ref Frames
  7. Format settings, CABAC                   : Yes
  8. Format settings, ReFrames                : 4 frames
  9. Codec ID                                 : V_MPEG4/ISO/AVC
  10. Duration                                 : 1 h 35 min
  11. Bit rate mode                            : Variable
  12. Bit rate                                 : 32.0 Mb/s
  13. Width                                    : 1 920 pixels
  14. Height                                   : 1 080 pixels
  15. Display aspect ratio                     : 16:9
  16. Frame rate mode                          : Constant
  17. Frame rate                               : 24.000 FPS
  18. Standard                                 : NTSC
  19. Color space                              : YUV
  20. Chroma subsampling                       : 4:2:0
  21. Bit depth                                : 8 bits
  22. Scan type                                : Progressive
  23. Bits/(Pixel*Frame)                       : 0.643
  24. Stream size                              : 21.1 GiB (91%)
  25. Title                                    : Taste.the.Blood.of.Dracula.1970.1080p.BluRay.REMUX.AVC.DTS-HD.MA.2.0-FGT
  26. Language                                 : English
  27. Default                                  : No
  28. Forced                                   : No
  29. Color range                              : Full
  30. Color primaries                          : BT.709
  31. Transfer characteristics                 : BT.709
  32. Matrix coefficients                      : BT.709

  33. Audio #1
  34. ID                                       : 2
  35. Format                                   : DTS
  36. Format/Info                              : Digital Theater Systems
  37. Format profile                           : MA / Core
  38. Codec ID                                 : A_DTS
  39. Duration                                 : 1 h 35 min
  40. Bit rate mode                            : Variable / Constant
  41. Bit rate                                 : 1 536 kb/s / 1 509 kb/s
  42. Channel(s)                               : 2 channels
  43. Channel positions                        : Front: L R
  44. Sampling rate                            : 48.0 kHz
  45. Frame rate                               : 93.750 FPS (512 SPF)
  46. Bit depth                                : 16 bits
  47. Compression mode                         : Lossless / Lossy
  48. Stream size                              : 1.04 GiB (4%)
  49. Title                                    : Taste.the.Blood.of.Dracula.1970.1080p.BluRay.REMUX.AVC.DTS-HD.MA.2.0-FGT
  50. Language                                 : English
  51. Default                                  : Yes
  52. Forced                                   : No

  53. Audio #2
  54. ID                                       : 3
  55. Format                                   : DTS
  56. Format/Info                              : Digital Theater Systems
  57. Codec ID                                 : A_DTS
  58. Duration                                 : 1 h 35 min
  59. Bit rate mode                            : Constant
  60. Bit rate                                 : 1 509 kb/s
  61. Channel(s)                               : 2 channels
  62. Channel positions                        : Front: L R
  63. Sampling rate                            : 48.0 kHz
  64. Frame rate                               : 93.750 FPS (512 SPF)
  65. Bit depth                                : 16 bits
  66. Compression mode                         : Lossy
  67. Stream size                              : 1.00 GiB (4%)
  68. Title                                    : Taste.the.Blood.of.Dracula.1970.1080p.BluRay.REMUX.AVC.DTS-HD.MA.2.0-FGT
  69. Language                                 : English
  70. Default                                  : No
  71. Forced                                   : No

  72. Menu
  73. 00:00:00.000                             : en:Chapter 01
  74. 00:05:27.083                             : en:Chapter 02
  75. 00:10:55.958                             : en:Chapter 03
  76. 00:14:56.583                             : en:Chapter 04
  77. 00:18:59.541                             : en:Chapter 05
  78. 00:22:58.875                             : en:Chapter 06
  79. 00:25:27.208                             : en:Chapter 07
  80. 00:29:49.958                             : en:Chapter 08
  81. 00:33:51.125                             : en:Chapter 09
  82. 00:39:13.250                             : en:Chapter 10
  83. 00:43:51.500                             : en:Chapter 11
  84. 00:45:07.125                             : en:Chapter 12
  85. 00:47:13.458                             : en:Chapter 13
  86. 00:53:20.750                             : en:Chapter 14
  87. 00:58:59.125                             : en:Chapter 15
  88. 01:04:34.375                             : en:Chapter 16
  89. 01:09:02.541                             : en:Chapter 17
  90. 01:14:30.958                             : en:Chapter 18
  91. 01:18:31.291                             : en:Chapter 19
  92. 01:22:43.583                             : en:Chapter 20
  93. 01:27:23.541                             : en:Chapter 21
  94. 01:30:12.541                             : en:Chapter 22
复制代码

复制代码

嗜血伯爵 Taste.the.Blood.of.Dracula.1970.1080p.BluRay.REMUX.AVC.DTS-HD.MA.2.0-FGT 23.12GB-2.png 嗜血伯爵 Taste.the.Blood.of.Dracula.1970.1080p.BluRay.REMUX.AVC.DTS-HD.MA.2.0-FGT 23.12GB-3.png 嗜血伯爵 Taste.the.Blood.of.Dracula.1970.1080p.BluRay.REMUX.AVC.DTS-HD.MA.2.0-FGT 23.12GB-4.png




回复

使用道具 举报

懒得打字嘛,点击右侧快捷回复 【右侧内容,后台自定义】
您需要登录后才可以回帖 登录 | 立即加入

本版积分规则

Archiver|小黑屋| 蓝光电影网 |网站地图

Copyright © 2021 Comsenz Inc. Powered by 蓝光电影网

蓝光电影网

本站内容由用户自主分享和转载自互联网,转载目的在于传递更多信息,并不代表本网赞同其观点和对其真实性负责。

如有侵权、违反国家法律政策行为,请联系我们,我们会第一时间及时清除和处理!

举报反馈邮箱:[email protected]

快速回复 返回顶部 返回列表