找回密码

蓝光电影网

查看: 632|回复: 1

[剧情] 直到黎明 Straight.on.Till.Morning.1972.1080p.BluRay.REMUX.AVC.DTS-HD.MA.2.0-FGT 22.95GB

[复制链接]
蓝光币
623
发表于 2018-9-4 09:53:53 | 显示全部楼层 |阅读模式

直到拂晓 Straight.on.Till.Morning.1972.1080p.BluRay.REMUX.AVC.DTS-HD.MA.2.0-FGT 22.95GB-1.jpg
◎译  名 直到拂晓
◎片  名 Straight on Till Morning
◎年  代 1972
◎产  地 英国
◎类  别 剧情/可骇/惊悚
◎语  言 英语
◎上映日期 1972
◎豆瓣评分 /10 from 0 users
◎豆瓣链接 https://movie.douban.com/subject/5055125/
◎片  长 96 分钟
◎导  演 Peter Collinson
◎主  演 丽塔·塔欣厄姆 Rita Tushingham
      谢恩·布赖恩特 Shane Briant
      卡佳·韦思 Katya Wyeth
      安妮·罗斯 Annie Ross
      汤姆·贝尔 Tom Bell
      克莱尔·凯利 Claire Kelly

◎简  介

  None

  1. Video
  2. ID                                       : 1
  3. Format                                   : AVC
  4. Format/Info                              : Advanced Video Codec
  5. Format profile                           : [url=/cdn-cgi/l/email-protection][email protected][/url]
  6. Format settings                          : CABAC / 3 Ref Frames
  7. Format settings, CABAC                   : Yes
  8. Format settings, ReFrames                : 3 frames
  9. Codec ID                                 : V_MPEG4/ISO/AVC
  10. Duration                                 : 1 h 36 min
  11. Bit rate mode                            : Variable
  12. Bit rate                                 : 32.0 Mb/s
  13. Maximum bit rate                         : 40.0 Mb/s
  14. Width                                    : 1 920 pixels
  15. Height                                   : 1 080 pixels
  16. Display aspect ratio                     : 16:9
  17. Frame rate mode                          : Constant
  18. Frame rate                               : 23.976 (24000/1001) FPS
  19. Color space                              : YUV
  20. Chroma subsampling                       : 4:2:0
  21. Bit depth                                : 8 bits
  22. Scan type                                : Progressive
  23. Bits/(Pixel*Frame)                       : 0.644
  24. Stream size                              : 21.5 GiB (94%)
  25. Title                                    : Straight.on.Till.Morning.1972.1080p.BluRay.REMUX.AVC.DTS-HD.MA.2.0-FGT
  26. Writing library                          : x264 core 148 r2705 3f5ed56
  27. Encoding settings                        : cabac=1 / ref=4 / deblock=0:-1:-1 / analyse=0x3:0x133 / me=umh / subme=10 / psy=1 / psy_rd=1.00:0.15 / mixed_ref=1 / me_range=24 / chroma_me=1 / trellis=2 / 8x8dct=1 / cqm=0 / deadzone=21,11 / fast_pskip=1 / chroma_qp_offset=-3 / threads=12 / lookahead_threads=1 / sliced_threads=0 / slices=4 / nr=0 / decimate=1 / interlaced=0 / bluray_compat=1 / constrained_intra=0 / bframes=3 / b_pyramid=1 / b_adapt=2 / b_bias=0 / direct=3 / weightb=1 / open_gop=1 / weightp=1 / keyint=24 / keyint_min=1 / scenecut=40 / intra_refresh=0 / rc_lookahead=24 / rc=2pass / mbtree=0 / bitrate=32000 / ratetol=1.0 / qcomp=0.30 / qpmin=0 / qpmax=69 / qpstep=4 / cplxblur=20.0 / qblur=0.5 / vbv_maxrate=40000 / vbv_bufsize=30000 / nal_hrd=vbr / filler=0 / ip_ratio=1.40 / pb_ratio=1.30 / aq=1:0.50
  28. Language                                 : English
  29. Default                                  : No
  30. Forced                                   : No
  31. Color range                              : Limited
  32. Color primaries                          : BT.709
  33. Transfer characteristics                 : BT.709
  34. Matrix coefficients                      : BT.709

  35. Audio #1
  36. ID                                       : 2
  37. Format                                   : DTS
  38. Format/Info                              : Digital Theater Systems
  39. Format profile                           : MA / Core
  40. Codec ID                                 : A_DTS
  41. Duration                                 : 1 h 36 min
  42. Bit rate mode                            : Variable / Constant
  43. Bit rate                                 : 1 411.2 kb/s / 768 kb/s
  44. Channel(s)                               : 2 channels
  45. Channel positions                        : Front: L R
  46. Sampling rate                            : 48.0 kHz
  47. Frame rate                               : 93.750 FPS (512 SPF)
  48. Bit depth                                : 24 bits
  49. Compression mode                         : Lossless / Lossy
  50. Stream size                              : 950 MiB (4%)
  51. Title                                    : Straight.on.Till.Morning.1972.1080p.BluRay.REMUX.AVC.DTS-HD.MA.2.0-FGT
  52. Language                                 : English
  53. Default                                  : Yes
  54. Forced                                   : No

  55. Audio #2
  56. ID                                       : 3
  57. Format                                   : DTS
  58. Format/Info                              : Digital Theater Systems
  59. Codec ID                                 : A_DTS
  60. Duration                                 : 1 h 36 min
  61. Bit rate mode                            : Constant
  62. Bit rate                                 : 768 kb/s
  63. Channel(s)                               : 2 channels
  64. Channel positions                        : Front: L R
  65. Sampling rate                            : 48.0 kHz
  66. Frame rate                               : 93.750 FPS (512 SPF)
  67. Bit depth                                : 24 bits
  68. Compression mode                         : Lossy
  69. Stream size                              : 529 MiB (2%)
  70. Title                                    : Straight.on.Till.Morning.1972.1080p.BluRay.REMUX.AVC.DTS-HD.MA.2.0-FGT
  71. Language                                 : English
  72. Default                                  : No
  73. Forced                                   : No

  74. Text
  75. ID                                       : 4
  76. Format                                   : PGS
  77. Muxing mode                              : zlib
  78. Codec ID                                 : S_HDMV/PGS
  79. Codec ID/Info                            : Picture based subtitle format used on BDs/HD-DVDs
  80. Duration                                 : 1 h 33 min
  81. Bit rate                                 : 23.7 kb/s
  82. Count of elements                        : 1592
  83. Stream size                              : 15.9 MiB (0%)
  84. Title                                    : English-PGS
  85. Language                                 : English
  86. Default                                  : Yes
  87. Forced                                   : No

  88. Menu
  89. 00:00:00.000                             : en:Chapter 01
  90. 00:05:28.828                             : en:Chapter 02
  91. 00:15:02.651                             : en:Chapter 03
  92. 00:25:34.616                             : en:Chapter 04
  93. 00:32:01.669                             : en:Chapter 05
  94. 00:42:51.110                             : en:Chapter 06
  95. 00:59:01.120                             : en:Chapter 07
  96. 01:06:16.472                             : en:Chapter 08
  97. 01:11:33.622                             : en:Chapter 09
  98. 01:20:13.433                             : en:Chapter 10
  99. 01:23:40.849                             : en:Chapter 11
  100. 01:27:54.185                             : en:Chapter 12
复制代码

复制代码

直到拂晓 Straight.on.Till.Morning.1972.1080p.BluRay.REMUX.AVC.DTS-HD.MA.2.0-FGT 22.95GB-2.png 直到拂晓 Straight.on.Till.Morning.1972.1080p.BluRay.REMUX.AVC.DTS-HD.MA.2.0-FGT 22.95GB-3.png 直到拂晓 Straight.on.Till.Morning.1972.1080p.BluRay.REMUX.AVC.DTS-HD.MA.2.0-FGT 22.95GB-4.png






回复

使用道具 举报

懒得打字嘛,点击右侧快捷回复 【右侧内容,后台自定义】
您需要登录后才可以回帖 登录 | 立即加入

本版积分规则

Archiver|小黑屋| 蓝光电影网 |网站地图

Copyright © 2021 Comsenz Inc. Powered by 蓝光电影网

蓝光电影网

本站内容由用户自主分享和转载自互联网,转载目的在于传递更多信息,并不代表本网赞同其观点和对其真实性负责。

如有侵权、违反国家法律政策行为,请联系我们,我们会第一时间及时清除和处理!

举报反馈邮箱:[email protected]

快速回复 返回顶部 返回列表