找回密码

蓝光电影网

查看: 2418|回复: 1

[喜剧] 绝地战警/坏小子 Bad.Boys.1995.REMASTERED.1080p.BluRay.x264.DTS-HD.MA.7.1-SWTYBLZ 15.27GB

[复制链接]
蓝光币
623
发表于 2018-9-4 13:27:30 | 显示全部楼层 |阅读模式

绝地战警/坏小子 Bad.Boys.1995.REMASTERED.1080p.BluRay.x264.DTS-HD.MA.7.1-SWTYBLZ 15.27GB-1.jpg
◎译  名 绝地战警/坏小子/重案梦幻组
◎片  名 Bad Boys
◎年  代 1995
◎产  地 美国
◎类  别 笑剧/行动/犯罪
◎语  言 英语
◎上映日期 1995-04-07(美国)/1995-12(中国大陆)
◎豆瓣评分 7.4/10 from 25,001 users
◎豆瓣链接 https://movie.douban.com/subject/1296102/
◎片  长 119分钟
◎导  演 迈克尔·贝 Michael Bay
◎主  演 马丁·劳伦斯 Martin Lawrence
      威尔·史姑娘 Will Smith
      蒂娅·里欧妮 Téa Leoni
      切基·卡尤 Tchéky Karyo
      特里萨·兰德尔 Theresa Randle
      乔·潘托里亚诺 Joe Pantoliano
      丽莎·博伊尔 Lisa Boyle
      Michael Taliferro
      马克·麦考利 Marc Macaulay
      弗兰克·约翰·休斯 Frank John Hughes
      安娜·莱文 Anna Levine
      萨姆·阿耶尔斯 Sam Ayers
      玛格·海根柏格 Marg Helgenberger
      内斯特·塞拉诺 Nestor Serrano
      胡里奥·奥斯卡·门乔索 Julio Oscar Mechoso
      迈克尔·因佩里奥利 Michael Imperioli
      Saverio Guerra
      肖恩·托布  Shaun Toub
      Marty McSorley
      凯文·考利甘 Kevin Corrigan
      约翰·萨利 John Salley

◎简  介

  迈阿密警局的一对“黄金”同伴,顾家爱妻的好汉子宾纳(马丁?劳伦斯)和穿着鲜明风骚倜傥的富家子弟劳瑞(威尔?史姑娘),受命清查一桩代价上亿美圆的毒品证物失窃案,假如不能实时完成使命,他俩就得卷铺盖走人。
  在两人疲于奔命之际,该案件唯一的性感女证人打电话到警局宣称她愿意指认胁从,但条件是劳瑞必须出头庇护她,否则一切免谈,此时劳瑞恰好不在警局,宾纳为套取线索,情急智生滥竽充数。厥后,为了不落空女证人的信赖,两人只得将对换身份一事停止到底,宾纳在枪林弹雨及汽车追逐中贴身庇护女证人,劳瑞则来到他家中陪伴其妻。

  1. Video
  2. ID                                       : 1
  3. Format                                   : AVC
  4. Format/Info                              : Advanced Video Codec
  5. Format profile                           : [url=/cdn-cgi/l/email-protection][email protected][/url]
  6. Format settings                          : CABAC / 4 Ref Frames
  7. Format settings, CABAC                   : Yes
  8. Format settings, ReFrames                : 4 frames
  9. Codec ID                                 : V_MPEG4/ISO/AVC
  10. Duration                                 : 1 h 58 min
  11. Bit rate                                 : 13.9 Mb/s
  12. Width                                    : 1 920 pixels
  13. Height                                   : 1 038 pixels
  14. Display aspect ratio                     : 1.85:1
  15. Frame rate mode                          : Constant
  16. Frame rate                               : 23.976 (24000/1001) FPS
  17. Color space                              : YUV
  18. Chroma subsampling                       : 4:2:0
  19. Bit depth                                : 8 bits
  20. Scan type                                : Progressive
  21. Bits/(Pixel*Frame)                       : 0.290
  22. Stream size                              : 11.5 GiB (75%)
  23. Title                                    : Bad.Boys.1995.1080p.BluRay.x264.DTS-HD.MA.7.1-SWTYBLZ
  24. Writing library                          : x264 core 155 r2901 7d0ff22
  25. Encoding settings                        : cabac=1 / ref=4 / deblock=1:-1:-1 / analyse=0x3:0x133 / me=umh / subme=10 / psy=1 / psy_rd=1.00:0.15 / mixed_ref=1 / me_range=48 / chroma_me=1 / trellis=2 / 8x8dct=1 / cqm=0 / deadzone=21,11 / fast_pskip=1 / chroma_qp_offset=-3 / threads=32 / lookahead_threads=5 / sliced_threads=0 / nr=0 / decimate=0 / interlaced=0 / bluray_compat=0 / constrained_intra=0 / bframes=8 / b_pyramid=2 / b_adapt=2 / b_bias=0 / direct=3 / weightb=1 / open_gop=0 / weightp=2 / keyint=250 / keyint_min=23 / scenecut=40 / intra_refresh=0 / rc_lookahead=60 / rc=crf / mbtree=1 / crf=21.0 / qcomp=0.60 / qpmin=0 / qpmax=69 / qpstep=4 / ip_ratio=1.40 / aq=1:1.00
  26. Default                                  : Yes
  27. Forced                                   : No

  28. Audio
  29. ID                                       : 2
  30. Format                                   : DTS
  31. Format/Info                              : Digital Theater Systems
  32. Format profile                           : MA / Core
  33. Codec ID                                 : A_DTS
  34. Duration                                 : 1 h 58 min
  35. Bit rate mode                            : Variable / Constant
  36. Bit rate                                 : 4 106 kb/s / 1 509 kb/s
  37. Channel(s)                               : 8 channels / 6 channels
  38. Channel positions                        : Front: L C R, Side: L R, Back: L R, LFE / Front: L C R, Side: L R, LFE
  39. Sampling rate                            : 48.0 kHz
  40. Frame rate                               : 93.750 FPS (512 SPF)
  41. Bit depth                                : 24 bits
  42. Compression mode                         : Lossless / Lossy
  43. Stream size                              : 3.41 GiB (22%)
  44. Title                                    : Bad.Boys.1995.1080p.BluRay.x264.DTS-HD.MA.7.1-SWTYBLZ
  45. Language                                 : English
  46. Default                                  : No
  47. Forced                                   : No

  48. Text #1
  49. ID                                       : 3
  50. Format                                   : UTF-8
  51. Codec ID                                 : S_TEXT/UTF8
  52. Codec ID/Info                            : UTF-8 Plain Text
  53. Duration                                 : 1 h 54 min
  54. Bit rate                                 : 67 b/s
  55. Count of elements                        : 1659
  56. Stream size                              : 56.4 KiB (0%)
  57. Title                                    : English-SRT
  58. Language                                 : English
  59. Default                                  : Yes
  60. Forced                                   : No

  61. Text #2
  62. ID                                       : 4
  63. Format                                   : PGS
  64. Muxing mode                              : zlib
  65. Codec ID                                 : S_HDMV/PGS
  66. Codec ID/Info                            : Picture based subtitle format used on BDs/HD-DVDs
  67. Duration                                 : 1 h 54 min
  68. Bit rate                                 : 38.7 kb/s
  69. Count of elements                        : 3318
  70. Stream size                              : 31.6 MiB (0%)
  71. Title                                    : English-PGS
  72. Language                                 : English
  73. Default                                  : No
  74. Forced                                   : No

  75. Text #3
  76. ID                                       : 5
  77. Format                                   : PGS
  78. Muxing mode                              : zlib
  79. Codec ID                                 : S_HDMV/PGS
  80. Codec ID/Info                            : Picture based subtitle format used on BDs/HD-DVDs
  81. Duration                                 : 1 h 57 min
  82. Bit rate                                 : 46.8 kb/s
  83. Count of elements                        : 3945
  84. Stream size                              : 39.3 MiB (0%)
  85. Title                                    : English-SDH-PGS
  86. Language                                 : English
  87. Default                                  : No
  88. Forced                                   : No

  89. Text #4
  90. ID                                       : 6
  91. Format                                   : PGS
  92. Muxing mode                              : zlib
  93. Codec ID                                 : S_HDMV/PGS
  94. Codec ID/Info                            : Picture based subtitle format used on BDs/HD-DVDs
  95. Duration                                 : 1 h 54 min
  96. Bit rate                                 : 38.7 kb/s
  97. Count of elements                        : 3318
  98. Stream size                              : 31.6 MiB (0%)
  99. Title                                    : English-PGS
  100. Language                                 : English
  101. Default                                  : No
  102. Forced                                   : No

  103. Text #5
  104. ID                                       : 7
  105. Format                                   : PGS
  106. Muxing mode                              : zlib
  107. Codec ID                                 : S_HDMV/PGS
  108. Codec ID/Info                            : Picture based subtitle format used on BDs/HD-DVDs
  109. Duration                                 : 1 h 57 min
  110. Bit rate                                 : 46.9 kb/s
  111. Count of elements                        : 3945
  112. Stream size                              : 39.3 MiB (0%)
  113. Title                                    : English-SDH-PGS
  114. Language                                 : English
  115. Default                                  : No
  116. Forced                                   : No

  117. Text #6
  118. ID                                       : 8
  119. Format                                   : PGS
  120. Muxing mode                              : zlib
  121. Codec ID                                 : S_HDMV/PGS
  122. Codec ID/Info                            : Picture based subtitle format used on BDs/HD-DVDs
  123. Duration                                 : 1 h 54 min
  124. Bit rate                                 : 18.3 kb/s
  125. Count of elements                        : 3396
  126. Stream size                              : 14.9 MiB (0%)
  127. Title                                    : Arabic-PGS
  128. Language                                 : Arabic
  129. Default                                  : No
  130. Forced                                   : No

  131. Text #7
  132. ID                                       : 9
  133. Format                                   : PGS
  134. Muxing mode                              : zlib
  135. Codec ID                                 : S_HDMV/PGS
  136. Codec ID/Info                            : Picture based subtitle format used on BDs/HD-DVDs
  137. Duration                                 : 1 h 54 min
  138. Bit rate                                 : 29.9 kb/s
  139. Count of elements                        : 3526
  140. Stream size                              : 24.4 MiB (0%)
  141. Title                                    : Chinese-PGS
  142. Language                                 : Chinese
  143. Default                                  : No
  144. Forced                                   : No

  145. Text #8
  146. ID                                       : 10
  147. Format                                   : PGS
  148. Muxing mode                              : zlib
  149. Codec ID                                 : S_HDMV/PGS
  150. Codec ID/Info                            : Picture based subtitle format used on BDs/HD-DVDs
  151. Duration                                 : 1 h 54 min
  152. Bit rate                                 : 30.0 kb/s
  153. Count of elements                        : 3526
  154. Stream size                              : 24.4 MiB (0%)
  155. Title                                    : Chinese-PGS
  156. Language                                 : Chinese
  157. Default                                  : No
  158. Forced                                   : No

  159. Text #9
  160. ID                                       : 11
  161. Format                                   : PGS
  162. Muxing mode                              : zlib
  163. Codec ID                                 : S_HDMV/PGS
  164. Codec ID/Info                            : Picture based subtitle format used on BDs/HD-DVDs
  165. Duration                                 : 1 h 54 min
  166. Bit rate                                 : 29.7 kb/s
  167. Count of elements                        : 3472
  168. Stream size                              : 24.2 MiB (0%)
  169. Title                                    : Czech-PGS
  170. Language                                 : Czech
  171. Default                                  : No
  172. Forced                                   : No

  173. Text #10
  174. ID                                       : 12
  175. Format                                   : PGS
  176. Muxing mode                              : zlib
  177. Codec ID                                 : S_HDMV/PGS
  178. Codec ID/Info                            : Picture based subtitle format used on BDs/HD-DVDs
  179. Duration                                 : 1 h 54 min
  180. Bit rate                                 : 37.3 kb/s
  181. Count of elements                        : 3418
  182. Stream size                              : 30.5 MiB (0%)
  183. Title                                    : Danish-PGS
  184. Language                                 : Danish
  185. Default                                  : No
  186. Forced                                   : No

  187. Text #11
  188. ID                                       : 13
  189. Format                                   : PGS
  190. Muxing mode                              : zlib
  191. Codec ID                                 : S_HDMV/PGS
  192. Codec ID/Info                            : Picture based subtitle format used on BDs/HD-DVDs
  193. Duration                                 : 1 h 54 min
  194. Bit rate                                 : 33.5 kb/s
  195. Count of elements                        : 3382
  196. Stream size                              : 27.3 MiB (0%)
  197. Title                                    : Dutch-PGS
  198. Language                                 : Dutch
  199. Default                                  : No
  200. Forced                                   : No

  201. Text #12
  202. ID                                       : 14
  203. Format                                   : PGS
  204. Muxing mode                              : zlib
  205. Codec ID                                 : S_HDMV/PGS
  206. Codec ID/Info                            : Picture based subtitle format used on BDs/HD-DVDs
  207. Duration                                 : 1 h 54 min
  208. Bit rate                                 : 35.2 kb/s
  209. Count of elements                        : 3084
  210. Stream size                              : 28.7 MiB (0%)
  211. Title                                    : Finnish-PGS
  212. Language                                 : Finnish
  213. Default                                  : No
  214. Forced                                   : No

  215. Text #13
  216. ID                                       : 15
  217. Format                                   : PGS
  218. Muxing mode                              : zlib
  219. Codec ID                                 : S_HDMV/PGS
  220. Codec ID/Info                            : Picture based subtitle format used on BDs/HD-DVDs
  221. Duration                                 : 1 h 57 min
  222. Bit rate                                 : 31.6 kb/s
  223. Count of elements                        : 3390
  224. Stream size                              : 26.6 MiB (0%)
  225. Title                                    : French-PGS
  226. Language                                 : French
  227. Default                                  : No
  228. Forced                                   : No

  229. Text #14
  230. ID                                       : 16
  231. Format                                   : PGS
  232. Muxing mode                              : zlib
  233. Codec ID                                 : S_HDMV/PGS
  234. Codec ID/Info                            : Picture based subtitle format used on BDs/HD-DVDs
  235. Duration                                 : 1 h 54 min
  236. Bit rate                                 : 38.7 kb/s
  237. Count of elements                        : 3452
  238. Stream size                              : 31.5 MiB (0%)
  239. Title                                    : German-PGS
  240. Language                                 : German
  241. Default                                  : No
  242. Forced                                   : No

  243. Text #15
  244. ID                                       : 17
  245. Format                                   : PGS
  246. Muxing mode                              : zlib
  247. Codec ID                                 : S_HDMV/PGS
  248. Codec ID/Info                            : Picture based subtitle format used on BDs/HD-DVDs
  249. Duration                                 : 1 h 54 min
  250. Bit rate                                 : 30.6 kb/s
  251. Count of elements                        : 3260
  252. Stream size                              : 25.0 MiB (0%)
  253. Title                                    : Greek-PGS
  254. Language                                 : Greek
  255. Default                                  : No
  256. Forced                                   : No

  257. Text #16
  258. ID                                       : 18
  259. Format                                   : PGS
  260. Muxing mode                              : zlib
  261. Codec ID                                 : S_HDMV/PGS
  262. Codec ID/Info                            : Picture based subtitle format used on BDs/HD-DVDs
  263. Duration                                 : 1 h 54 min
  264. Bit rate                                 : 33.6 kb/s
  265. Count of elements                        : 3376
  266. Stream size                              : 27.4 MiB (0%)
  267. Title                                    : Hungarian-PGS
  268. Language                                 : Hungarian
  269. Default                                  : No
  270. Forced                                   : No

  271. Text #17
  272. ID                                       : 19
  273. Format                                   : PGS
  274. Muxing mode                              : zlib
  275. Codec ID                                 : S_HDMV/PGS
  276. Codec ID/Info                            : Picture based subtitle format used on BDs/HD-DVDs
  277. Duration                                 : 1 h 54 min
  278. Bit rate                                 : 41.6 kb/s
  279. Count of elements                        : 3392
  280. Stream size                              : 33.9 MiB (0%)
  281. Title                                    : Italian-PGS
  282. Language                                 : Italian
  283. Default                                  : No
  284. Forced                                   : No

  285. Text #18
  286. ID                                       : 20
  287. Format                                   : PGS
  288. Muxing mode                              : zlib
  289. Codec ID                                 : S_HDMV/PGS
  290. Codec ID/Info                            : Picture based subtitle format used on BDs/HD-DVDs
  291. Duration                                 : 1 h 53 min
  292. Bit rate                                 : 27.2 kb/s
  293. Count of elements                        : 3237
  294. Stream size                              : 22.2 MiB (0%)
  295. Title                                    : Japanese-PGS
  296. Language                                 : Japanese
  297. Default                                  : No
  298. Forced                                   : No

  299. Text #19
  300. ID                                       : 21
  301. Format                                   : PGS
  302. Muxing mode                              : zlib
  303. Codec ID                                 : S_HDMV/PGS
  304. Codec ID/Info                            : Picture based subtitle format used on BDs/HD-DVDs
  305. Duration                                 : 1 h 54 min
  306. Bit rate                                 : 30.2 kb/s
  307. Count of elements                        : 3346
  308. Stream size                              : 24.7 MiB (0%)
  309. Title                                    : Korean-PGS
  310. Language                                 : Korean
  311. Default                                  : No
  312. Forced                                   : No

  313. Text #20
  314. ID                                       : 22
  315. Format                                   : PGS
  316. Muxing mode                              : zlib
  317. Codec ID                                 : S_HDMV/PGS
  318. Codec ID/Info                            : Picture based subtitle format used on BDs/HD-DVDs
  319. Duration                                 : 1 h 54 min
  320. Bit rate                                 : 32.8 kb/s
  321. Count of elements                        : 3468
  322. Stream size                              : 26.7 MiB (0%)
  323. Title                                    : Norwegian-PGS
  324. Language                                 : Norwegian
  325. Default                                  : No
  326. Forced                                   : No

  327. Text #21
  328. ID                                       : 23
  329. Format                                   : PGS
  330. Muxing mode                              : zlib
  331. Codec ID                                 : S_HDMV/PGS
  332. Codec ID/Info                            : Picture based subtitle format used on BDs/HD-DVDs
  333. Duration                                 : 1 h 54 min
  334. Bit rate                                 : 28.1 kb/s
  335. Count of elements                        : 3250
  336. Stream size                              : 22.9 MiB (0%)
  337. Title                                    : Polish-PGS
  338. Language                                 : Polish
  339. Default                                  : No
  340. Forced                                   : No

  341. Text #22
  342. ID                                       : 24
  343. Format                                   : PGS
  344. Muxing mode                              : zlib
  345. Codec ID                                 : S_HDMV/PGS
  346. Codec ID/Info                            : Picture based subtitle format used on BDs/HD-DVDs
  347. Duration                                 : 1 h 54 min
  348. Bit rate                                 : 30.9 kb/s
  349. Count of elements                        : 2748
  350. Stream size                              : 25.2 MiB (0%)
  351. Title                                    : Portuguese-PGS
  352. Language                                 : Portuguese
  353. Default                                  : No
  354. Forced                                   : No

  355. Text #23
  356. ID                                       : 25
  357. Format                                   : PGS
  358. Muxing mode                              : zlib
  359. Codec ID                                 : S_HDMV/PGS
  360. Codec ID/Info                            : Picture based subtitle format used on BDs/HD-DVDs
  361. Duration                                 : 1 h 54 min
  362. Bit rate                                 : 34.9 kb/s
  363. Count of elements                        : 3428
  364. Stream size                              : 28.5 MiB (0%)
  365. Title                                    : Portuguese-PGS
  366. Language                                 : Portuguese
  367. Default                                  : No
  368. Forced                                   : No

  369. Text #24
  370. ID                                       : 26
  371. Format                                   : PGS
  372. Muxing mode                              : zlib
  373. Codec ID                                 : S_HDMV/PGS
  374. Codec ID/Info                            : Picture based subtitle format used on BDs/HD-DVDs
  375. Duration                                 : 1 h 54 min
  376. Bit rate                                 : 37.4 kb/s
  377. Count of elements                        : 3324
  378. Stream size                              : 30.5 MiB (0%)
  379. Title                                    : Romanian-PGS
  380. Language                                 : Romanian
  381. Default                                  : No
  382. Forced                                   : No

  383. Text #25
  384. ID                                       : 27
  385. Format                                   : PGS
  386. Muxing mode                              : zlib
  387. Codec ID                                 : S_HDMV/PGS
  388. Codec ID/Info                            : Picture based subtitle format used on BDs/HD-DVDs
  389. Duration                                 : 1 h 54 min
  390. Bit rate                                 : 37.2 kb/s
  391. Count of elements                        : 3360
  392. Stream size                              : 30.4 MiB (0%)
  393. Title                                    : Slovak-PGS
  394. Language                                 : Slovak
  395. Default                                  : No
  396. Forced                                   : No

  397. Text #26
  398. ID                                       : 28
  399. Format                                   : PGS
  400. Muxing mode                              : zlib
  401. Codec ID                                 : S_HDMV/PGS
  402. Codec ID/Info                            : Picture based subtitle format used on BDs/HD-DVDs
  403. Duration                                 : 1 h 54 min
  404. Bit rate                                 : 36.6 kb/s
  405. Count of elements                        : 3386
  406. Stream size                              : 29.8 MiB (0%)
  407. Title                                    : Spanish-PGS
  408. Language                                 : Spanish
  409. Default                                  : No
  410. Forced                                   : No

  411. Text #27
  412. ID                                       : 29
  413. Format                                   : PGS
  414. Muxing mode                              : zlib
  415. Codec ID                                 : S_HDMV/PGS
  416. Codec ID/Info                            : Picture based subtitle format used on BDs/HD-DVDs
  417. Duration                                 : 1 h 54 min
  418. Bit rate                                 : 37.7 kb/s
  419. Count of elements                        : 3216
  420. Stream size                              : 30.8 MiB (0%)
  421. Title                                    : Spanish-PGS
  422. Language                                 : Spanish
  423. Default                                  : No
  424. Forced                                   : No

  425. Text #28
  426. ID                                       : 30
  427. Format                                   : PGS
  428. Muxing mode                              : zlib
  429. Codec ID                                 : S_HDMV/PGS
  430. Codec ID/Info                            : Picture based subtitle format used on BDs/HD-DVDs
  431. Duration                                 : 1 h 54 min
  432. Bit rate                                 : 32.3 kb/s
  433. Count of elements                        : 3430
  434. Stream size                              : 26.4 MiB (0%)
  435. Title                                    : Swedish-PGS
  436. Language                                 : Swedish
  437. Default                                  : No
  438. Forced                                   : No

  439. Text #29
  440. ID                                       : 31
  441. Format                                   : PGS
  442. Muxing mode                              : zlib
  443. Codec ID                                 : S_HDMV/PGS
  444. Codec ID/Info                            : Picture based subtitle format used on BDs/HD-DVDs
  445. Duration                                 : 1 h 54 min
  446. Bit rate                                 : 32.3 kb/s
  447. Count of elements                        : 3526
  448. Stream size                              : 26.3 MiB (0%)
  449. Title                                    : Thai-PGS
  450. Language                                 : Thai
  451. Default                                  : No
  452. Forced                                   : No

  453. Text #30
  454. ID                                       : 32
  455. Format                                   : PGS
  456. Muxing mode                              : zlib
  457. Codec ID                                 : S_HDMV/PGS
  458. Codec ID/Info                            : Picture based subtitle format used on BDs/HD-DVDs
  459. Duration                                 : 1 h 54 min
  460. Bit rate                                 : 32.4 kb/s
  461. Count of elements                        : 3346
  462. Stream size                              : 26.4 MiB (0%)
  463. Title                                    : Turkish-PGS
  464. Language                                 : Turkish
  465. Default                                  : No
  466. Forced                                   : No

  467. Text #31
  468. ID                                       : 33
  469. Format                                   : PGS
  470. Muxing mode                              : zlib
  471. Codec ID                                 : S_HDMV/PGS
  472. Codec ID/Info                            : Picture based subtitle format used on BDs/HD-DVDs
  473. Duration                                 : 1 s 585 ms
  474. Bit rate                                 : 31.9 kb/s
  475. Count of elements                        : 2
  476. Stream size                              : 6.17 KiB (0%)
  477. Title                                    : French-FORCED-PGS
  478. Language                                 : French
  479. Default                                  : No
  480. Forced                                   : No

  481. Text #32
  482. ID                                       : 34
  483. Format                                   : PGS
  484. Muxing mode                              : zlib
  485. Codec ID                                 : S_HDMV/PGS
  486. Codec ID/Info                            : Picture based subtitle format used on BDs/HD-DVDs
  487. Duration                                 : 1 h 41 min
  488. Bit rate                                 : 122 b/s
  489. Count of elements                        : 18
  490. Stream size                              : 91.2 KiB (0%)
  491. Title                                    : Japanese-FORCED-PGS
  492. Language                                 : Japanese
  493. Default                                  : No
  494. Forced                                   : No

  495. Text #33
  496. ID                                       : 35
  497. Format                                   : PGS
  498. Muxing mode                              : zlib
  499. Codec ID                                 : S_HDMV/PGS
  500. Codec ID/Info                            : Picture based subtitle format used on BDs/HD-DVDs
  501. Duration                                 : 1 h 36 min
  502. Bit rate                                 : 107 b/s
  503. Count of elements                        : 12
  504. Stream size                              : 76.0 KiB (0%)
  505. Title                                    : Russian-FORCED-PGS
  506. Language                                 : Russian
  507. Default                                  : No
  508. Forced                                   : No

  509. Menu
  510. 00:00:00.000                             : :Chapter 1
  511. 00:05:07.473                             : :Chapter 2
  512. 00:12:01.971                             : :Chapter 3
  513. 00:17:38.098                             : :Chapter 4
  514. 00:23:33.203                             : :Chapter 5
  515. 00:31:31.764                             : :Chapter 6
  516. 00:41:09.133                             : :Chapter 7
  517. 00:47:35.310                             : :Chapter 8
  518. 00:54:37.357                             : :Chapter 9
  519. 01:04:05.675                             : :Chapter 10
  520. 01:13:49.800                             : :Chapter 11
  521. 01:20:21.483                             : :Chapter 12
  522. 01:27:58.523                             : :Chapter 13
  523. 01:34:54.271                             : :Chapter 14
  524. 01:43:09.308                             : :Chapter 15
  525. 01:50:51.353                             : :Chapter 16
复制代码

复制代码

绝地战警/坏小子 Bad.Boys.1995.REMASTERED.1080p.BluRay.x264.DTS-HD.MA.7.1-SWTYBLZ 15.27GB-2.png 绝地战警/坏小子 Bad.Boys.1995.REMASTERED.1080p.BluRay.x264.DTS-HD.MA.7.1-SWTYBLZ 15.27GB-3.png 绝地战警/坏小子 Bad.Boys.1995.REMASTERED.1080p.BluRay.x264.DTS-HD.MA.7.1-SWTYBLZ 15.27GB-4.png






回复

使用道具 举报

蓝光币
642
发表于 2018-9-9 21:50:48 | 显示全部楼层
精彩好片,谢谢分享!
回复 支持 反对

使用道具 举报

懒得打字嘛,点击右侧快捷回复 【右侧内容,后台自定义】
您需要登录后才可以回帖 登录 | 立即加入

本版积分规则

Archiver|小黑屋| 蓝光电影网 |网站地图

Copyright © 2021 Comsenz Inc. Powered by 蓝光电影网

蓝光电影网

本站内容由用户自主分享和转载自互联网,转载目的在于传递更多信息,并不代表本网赞同其观点和对其真实性负责。

如有侵权、违反国家法律政策行为,请联系我们,我们会第一时间及时清除和处理!

举报反馈邮箱:[email protected]

快速回复 返回顶部 返回列表