找回密码

蓝光电影网

查看: 2684|回复: 38

绝地战警/坏小子 Bad.Boys.1995.2160p.UHD.BluRay.X265.10bit.HDR.TrueHD.7.1.Atmos-TERMiNAL 47.59GB

[复制链接]
蓝光币
623
发表于 2018-9-4 13:29:24 | 显示全部楼层 |阅读模式

绝地战警/坏小子 Bad.Boys.1995.2160p.UHD.BluRay.X265.10bit.HDR.TrueHD.7.1.Atmos-TERMiNAL 47.59GB-1.jpg
◎译  名 绝地战警/坏小子/重案梦幻组
◎片  名 Bad Boys
◎年  代 1995
◎产  地 美国
◎类  别 笑剧/行动/犯罪
◎语  言 英语
◎上映日期 1995-04-07(美国)/1995-12(中国大陆)
◎豆瓣评分 7.4/10 from 25,002 users
◎豆瓣链接 https://movie.douban.com/subject/1296102/
◎片  长 119分钟
◎导  演 迈克尔·贝 Michael Bay
◎主  演 马丁·劳伦斯 Martin Lawrence
      威尔·史姑娘 Will Smith
      蒂娅·里欧妮 Téa Leoni
      切基·卡尤 Tchéky Karyo
      特里萨·兰德尔 Theresa Randle
      乔·潘托里亚诺 Joe Pantoliano
      丽莎·博伊尔 Lisa Boyle
      Michael Taliferro
      马克·麦考利 Marc Macaulay
      弗兰克·约翰·休斯 Frank John Hughes
      安娜·莱文 Anna Levine
      萨姆·阿耶尔斯 Sam Ayers
      玛格·海根柏格 Marg Helgenberger
      内斯特·塞拉诺 Nestor Serrano
      胡里奥·奥斯卡·门乔索 Julio Oscar Mechoso
      迈克尔·因佩里奥利 Michael Imperioli
      Saverio Guerra
      肖恩·托布  Shaun Toub
      Marty McSorley
      凯文·考利甘 Kevin Corrigan
      约翰·萨利 John Salley

◎简  介

  迈阿密警局的一对“黄金”同伴,顾家爱妻的好汉子宾纳(马丁?劳伦斯)和穿着鲜明风骚倜傥的富家子弟劳瑞(威尔?史姑娘),受命清查一桩代价上亿美圆的毒品证物失窃案,假如不能实时完成使命,他俩就得卷铺盖走人。
  在两人疲于奔命之际,该案件唯一的性感女证人打电话到警局宣称她愿意指认胁从,但条件是劳瑞必须出头庇护她,否则一切免谈,此时劳瑞恰好不在警局,宾纳为套取线索,情急智生滥竽充数。厥后,为了不落空女证人的信赖,两人只得将对换身份一事停止到底,宾纳在枪林弹雨及汽车追逐中贴身庇护女证人,劳瑞则来到他家中陪伴其妻。

  1. Video
  2. ID                                       : 1
  3. Format                                   : HEVC
  4. Format/Info                              : High Efficiency Video Coding
  5. Commercial name                          : HDR10
  6. Format profile                           : Main [url=/cdn-cgi/l/email-protection][email protected][/url]@High
  7. Codec ID                                 : V_MPEGH/ISO/HEVC
  8. Duration                                 : 1 h 58 min
  9. Bit rate                                 : 50.1 Mb/s
  10. Width                                    : 3 840 pixels
  11. Height                                   : 2 076 pixels
  12. Display aspect ratio                     : 1.85:1
  13. Frame rate mode                          : Constant
  14. Frame rate                               : 23.976 (24000/1001) FPS
  15. Color space                              : YUV
  16. Chroma subsampling                       : 4:2:0 (Type 2)
  17. Bit depth                                : 10 bits
  18. Bits/(Pixel*Frame)                       : 0.262
  19. Stream size                              : 41.6 GiB (87%)
  20. Writing library                          : x265 2.8+10-703eade86b53:[Windows][MSVC 1914][64 bit] 10bit
  21. Encoding settings                        : cpuid=1111039 / frame-threads=6 / numa-pools=36 / wpp / no-pmode / no-pme / no-psnr / no-ssim / log-level=2 / input-csp=1 / input-res=3840x2076 / interlace=0 / total-frames=170953 / level-idc=51 / high-tier=1 / uhd-bd=0 / ref=4 / no-allow-non-conformance / repeat-headers / annexb / aud / hrd / info / hash=0 / no-temporal-layers / no-open-gop / min-keyint=1 / keyint=24 / gop-lookahead=0 / bframes=4 / b-adapt=2 / b-pyramid / bframe-bias=0 / rc-lookahead=25 / lookahead-slices=4 / scenecut=40 / radl=0 / no-intra-refresh / ctu=64 / min-cu-size=8 / rect / no-amp / max-tu-size=32 / tu-inter-depth=1 / tu-intra-depth=1 / limit-tu=0 / rdoq-level=2 / dynamic-rd=0.00 / no-ssim-rd / signhide / no-tskip / nr-intra=0 / nr-inter=0 / no-constrained-intra / no-strong-intra-smoothing / max-merge=3 / limit-refs=3 / limit-modes / me=3 / subme=3 / merange=57 / temporal-mvp / weightp / no-weightb / no-analyze-src-pics / deblock=-3:-3 / no-sao / no-sao-non-deblock / rd=4 / no-early-skip / rskip / no-fast-intra / no-tskip-fast / no-cu-lossless / no-b-intra / no-splitrd-skip / rdpenalty=0 / psy-rd=2.00 / psy-rdoq=1.00 / no-rd-refine / no-lossless / cbqpoffs=0 / crqpoffs=0 / rc=crf / crf=18.0 / qcomp=0.60 / qpstep=4 / stats-write=0 / stats-read=0 / vbv-maxrate=160000 / vbv-bufsize=160000 / vbv-init=0.9 / crf-max=0.0 / crf-min=0.0 / ipratio=1.40 / pbratio=1.30 / aq-mode=1 / aq-strength=1.00 / cutree / zone-count=0 / no-strict-cbr / qg-size=32 / no-rc-grain / qpmax=69 / qpmin=0 / no-const-vbv / sar=1 / overscan=0 / videoformat=5 / range=0 / colorprim=9 / transfer=16 / colormatrix=9 / chromaloc=1 / chromaloc-top=2 / chromaloc-bottom=2 / display-window=0 / master-display=G(13250,34500)B(7500,3000)R(34000,16000)WP(15635,16450)L(40000000,50) / max-cll=6239,4864 / min-luma=0 / max-luma=1023 / log2-max-poc-lsb=8 / vui-timing-info / vui-hrd-info / slices=1 / no-opt-qp-pps / no-opt-ref-list-length-pps / no-multi-pass-opt-rps / scenecut-bias=0.05 / no-opt-cu-delta-qp / no-aq-motion / hdr / hdr-opt / no-dhdr10-opt / no-idr-recovery-sei / analysis-reuse-level=5 / scale-factor=0 / refine-intra=0 / refine-inter=0 / refine-mv=0 / no-limit-sao / ctu-info=0 / no-lowpass-dct / refine-mv-type=0 / copy-pic=1 / max-ausize-factor=1.0 / no-dynamic-refine / no-single-sei
  22. Default                                  : Yes
  23. Forced                                   : No
  24. Color range                              : Limited
  25. Color primaries                          : BT.2020
  26. Transfer characteristics                 : PQ
  27. Matrix coefficients                      : BT.2020 non-constant
  28. Mastering display color primaries        : Display P3
  29. Mastering display luminance              : min: 0.0050 cd/m2, max: 4000 cd/m2
  30. Maximum Content Light Level              : 6239 cd/m2
  31. Maximum Frame-Average Light Level        : 4864 cd/m2

  32. Audio #1
  33. ID                                       : 2
  34. Format                                   : TrueHD
  35. Format profile                           : TrueHD+Atmos / TrueHD
  36. Codec ID                                 : A_TRUEHD
  37. Duration                                 : 1 h 58 min
  38. Bit rate mode                            : Variable
  39. Bit rate                                 : 3 750 kb/s
  40. Maximum bit rate                         : 5 721 kb/s
  41. Channel(s)                               : Object Based / 8 channels
  42. Channel positions                        : Object Based / Front: L C R, Side: L R, Back: L R, LFE
  43. Sampling rate                            :  / 48.0 kHz
  44. Frame rate                               : 1 200.000 FPS (40 SPF)
  45. Compression mode                         : Lossless
  46. Stream size                              : 3.11 GiB (7%)
  47. Language                                 : English
  48. Default                                  : Yes
  49. Forced                                   : No

  50. Audio #2
  51. ID                                       : 3
  52. Format                                   : AC-3
  53. Format/Info                              : Audio Coding 3
  54. Codec ID                                 : A_AC3
  55. Duration                                 : 1 h 58 min
  56. Bit rate mode                            : Constant
  57. Bit rate                                 : 640 kb/s
  58. Channel(s)                               : 6 channels
  59. Channel positions                        : Front: L C R, Side: L R, LFE
  60. Sampling rate                            : 48.0 kHz
  61. Frame rate                               : 31.250 FPS (1536 SPF)
  62. Bit depth                                : 16 bits
  63. Compression mode                         : Lossy
  64. Stream size                              : 544 MiB (1%)
  65. Language                                 : English
  66. Service kind                             : Complete Main
  67. Default                                  : No
  68. Forced                                   : No

  69. Audio #3
  70. ID                                       : 4
  71. Format                                   : DTS
  72. Format/Info                              : Digital Theater Systems
  73. Format profile                           : MA / Core
  74. Codec ID                                 : A_DTS
  75. Duration                                 : 1 h 58 min
  76. Bit rate mode                            : Variable / Constant
  77. Bit rate                                 : 2 337 kb/s / 1 509 kb/s
  78. Channel(s)                               : 6 channels
  79. Channel positions                        : Front: L C R, Side: L R, LFE
  80. Sampling rate                            : 48.0 kHz
  81. Frame rate                               : 93.750 FPS (512 SPF)
  82. Bit depth                                : 16 bits
  83. Compression mode                         : Lossless / Lossy
  84. Stream size                              : 1.94 GiB (4%)
  85. Language                                 : English
  86. Default                                  : No
  87. Forced                                   : No

  88. Text #1
  89. ID                                       : 5
  90. Format                                   : PGS
  91. Muxing mode                              : zlib
  92. Codec ID                                 : S_HDMV/PGS
  93. Codec ID/Info                            : Picture based subtitle format used on BDs/HD-DVDs
  94. Duration                                 : 1 h 57 min
  95. Bit rate                                 : 46.8 kb/s
  96. Count of elements                        : 3945
  97. Stream size                              : 39.3 MiB (0%)
  98. Language                                 : English
  99. Default                                  : No
  100. Forced                                   : No

  101. Text #2
  102. ID                                       : 6
  103. Format                                   : PGS
  104. Muxing mode                              : zlib
  105. Codec ID                                 : S_HDMV/PGS
  106. Codec ID/Info                            : Picture based subtitle format used on BDs/HD-DVDs
  107. Duration                                 : 1 h 54 min
  108. Bit rate                                 : 38.7 kb/s
  109. Count of elements                        : 3318
  110. Stream size                              : 31.6 MiB (0%)
  111. Language                                 : English
  112. Default                                  : No
  113. Forced                                   : No

  114. Text #3
  115. ID                                       : 7
  116. Format                                   : PGS
  117. Muxing mode                              : zlib
  118. Codec ID                                 : S_HDMV/PGS
  119. Codec ID/Info                            : Picture based subtitle format used on BDs/HD-DVDs
  120. Duration                                 : 1 h 57 min
  121. Bit rate                                 : 46.9 kb/s
  122. Count of elements                        : 3945
  123. Stream size                              : 39.3 MiB (0%)
  124. Language                                 : English
  125. Default                                  : No
  126. Forced                                   : No

  127. Text #4
  128. ID                                       : 8
  129. Format                                   : PGS
  130. Muxing mode                              : zlib
  131. Codec ID                                 : S_HDMV/PGS
  132. Codec ID/Info                            : Picture based subtitle format used on BDs/HD-DVDs
  133. Duration                                 : 1 h 54 min
  134. Bit rate                                 : 38.7 kb/s
  135. Count of elements                        : 3318
  136. Stream size                              : 31.6 MiB (0%)
  137. Language                                 : English
  138. Default                                  : No
  139. Forced                                   : No

  140. Text #5
  141. ID                                       : 9
  142. Format                                   : PGS
  143. Muxing mode                              : zlib
  144. Codec ID                                 : S_HDMV/PGS
  145. Codec ID/Info                            : Picture based subtitle format used on BDs/HD-DVDs
  146. Duration                                 : 1 h 54 min
  147. Bit rate                                 : 18.3 kb/s
  148. Count of elements                        : 3396
  149. Stream size                              : 14.9 MiB (0%)
  150. Language                                 : Arabic
  151. Default                                  : No
  152. Forced                                   : No

  153. Text #6
  154. ID                                       : 10
  155. Format                                   : PGS
  156. Muxing mode                              : zlib
  157. Codec ID                                 : S_HDMV/PGS
  158. Codec ID/Info                            : Picture based subtitle format used on BDs/HD-DVDs
  159. Duration                                 : 1 h 54 min
  160. Bit rate                                 : 29.9 kb/s
  161. Count of elements                        : 3526
  162. Stream size                              : 24.4 MiB (0%)
  163. Language                                 : Chinese
  164. Default                                  : No
  165. Forced                                   : No

  166. Text #7
  167. ID                                       : 11
  168. Format                                   : PGS
  169. Muxing mode                              : zlib
  170. Codec ID                                 : S_HDMV/PGS
  171. Codec ID/Info                            : Picture based subtitle format used on BDs/HD-DVDs
  172. Duration                                 : 1 h 54 min
  173. Bit rate                                 : 30.0 kb/s
  174. Count of elements                        : 3526
  175. Stream size                              : 24.4 MiB (0%)
  176. Language                                 : Chinese
  177. Default                                  : No
  178. Forced                                   : No

  179. Text #8
  180. ID                                       : 12
  181. Format                                   : PGS
  182. Muxing mode                              : zlib
  183. Codec ID                                 : S_HDMV/PGS
  184. Codec ID/Info                            : Picture based subtitle format used on BDs/HD-DVDs
  185. Duration                                 : 1 h 54 min
  186. Bit rate                                 : 29.7 kb/s
  187. Count of elements                        : 3472
  188. Stream size                              : 24.2 MiB (0%)
  189. Language                                 : Czech
  190. Default                                  : No
  191. Forced                                   : No

  192. Text #9
  193. ID                                       : 13
  194. Format                                   : PGS
  195. Muxing mode                              : zlib
  196. Codec ID                                 : S_HDMV/PGS
  197. Codec ID/Info                            : Picture based subtitle format used on BDs/HD-DVDs
  198. Duration                                 : 1 h 54 min
  199. Bit rate                                 : 37.3 kb/s
  200. Count of elements                        : 3418
  201. Stream size                              : 30.5 MiB (0%)
  202. Language                                 : Danish
  203. Default                                  : No
  204. Forced                                   : No

  205. Text #10
  206. ID                                       : 14
  207. Format                                   : PGS
  208. Muxing mode                              : zlib
  209. Codec ID                                 : S_HDMV/PGS
  210. Codec ID/Info                            : Picture based subtitle format used on BDs/HD-DVDs
  211. Duration                                 : 1 h 54 min
  212. Bit rate                                 : 33.5 kb/s
  213. Count of elements                        : 3382
  214. Stream size                              : 27.3 MiB (0%)
  215. Language                                 : Dutch
  216. Default                                  : No
  217. Forced                                   : No

  218. Text #11
  219. ID                                       : 15
  220. Format                                   : PGS
  221. Muxing mode                              : zlib
  222. Codec ID                                 : S_HDMV/PGS
  223. Codec ID/Info                            : Picture based subtitle format used on BDs/HD-DVDs
  224. Duration                                 : 1 h 54 min
  225. Bit rate                                 : 35.2 kb/s
  226. Count of elements                        : 3084
  227. Stream size                              : 28.7 MiB (0%)
  228. Language                                 : Finnish
  229. Default                                  : No
  230. Forced                                   : No

  231. Text #12
  232. ID                                       : 16
  233. Format                                   : PGS
  234. Muxing mode                              : zlib
  235. Codec ID                                 : S_HDMV/PGS
  236. Codec ID/Info                            : Picture based subtitle format used on BDs/HD-DVDs
  237. Duration                                 : 1 h 57 min
  238. Bit rate                                 : 31.6 kb/s
  239. Count of elements                        : 3390
  240. Stream size                              : 26.6 MiB (0%)
  241. Language                                 : French
  242. Default                                  : No
  243. Forced                                   : No

  244. Text #13
  245. ID                                       : 17
  246. Format                                   : PGS
  247. Muxing mode                              : zlib
  248. Codec ID                                 : S_HDMV/PGS
  249. Codec ID/Info                            : Picture based subtitle format used on BDs/HD-DVDs
  250. Duration                                 : 1 h 54 min
  251. Bit rate                                 : 38.7 kb/s
  252. Count of elements                        : 3452
  253. Stream size                              : 31.5 MiB (0%)
  254. Language                                 : German
  255. Default                                  : No
  256. Forced                                   : No

  257. Text #14
  258. ID                                       : 18
  259. Format                                   : PGS
  260. Muxing mode                              : zlib
  261. Codec ID                                 : S_HDMV/PGS
  262. Codec ID/Info                            : Picture based subtitle format used on BDs/HD-DVDs
  263. Duration                                 : 1 h 54 min
  264. Bit rate                                 : 30.6 kb/s
  265. Count of elements                        : 3260
  266. Stream size                              : 25.0 MiB (0%)
  267. Language                                 : Greek
  268. Default                                  : No
  269. Forced                                   : No

  270. Text #15
  271. ID                                       : 19
  272. Format                                   : PGS
  273. Muxing mode                              : zlib
  274. Codec ID                                 : S_HDMV/PGS
  275. Codec ID/Info                            : Picture based subtitle format used on BDs/HD-DVDs
  276. Duration                                 : 1 h 54 min
  277. Bit rate                                 : 33.6 kb/s
  278. Count of elements                        : 3376
  279. Stream size                              : 27.4 MiB (0%)
  280. Language                                 : Hungarian
  281. Default                                  : No
  282. Forced                                   : No

  283. Text #16
  284. ID                                       : 20
  285. Format                                   : PGS
  286. Muxing mode                              : zlib
  287. Codec ID                                 : S_HDMV/PGS
  288. Codec ID/Info                            : Picture based subtitle format used on BDs/HD-DVDs
  289. Duration                                 : 1 h 54 min
  290. Bit rate                                 : 41.6 kb/s
  291. Count of elements                        : 3392
  292. Stream size                              : 33.9 MiB (0%)
  293. Language                                 : Italian
  294. Default                                  : No
  295. Forced                                   : No

  296. Text #17
  297. ID                                       : 21
  298. Format                                   : PGS
  299. Muxing mode                              : zlib
  300. Codec ID                                 : S_HDMV/PGS
  301. Codec ID/Info                            : Picture based subtitle format used on BDs/HD-DVDs
  302. Duration                                 : 1 h 53 min
  303. Bit rate                                 : 27.2 kb/s
  304. Count of elements                        : 3237
  305. Stream size                              : 22.2 MiB (0%)
  306. Language                                 : Japanese
  307. Default                                  : No
  308. Forced                                   : No

  309. Text #18
  310. ID                                       : 22
  311. Format                                   : PGS
  312. Muxing mode                              : zlib
  313. Codec ID                                 : S_HDMV/PGS
  314. Codec ID/Info                            : Picture based subtitle format used on BDs/HD-DVDs
  315. Duration                                 : 1 h 54 min
  316. Bit rate                                 : 30.2 kb/s
  317. Count of elements                        : 3346
  318. Stream size                              : 24.7 MiB (0%)
  319. Language                                 : Korean
  320. Default                                  : No
  321. Forced                                   : No

  322. Text #19
  323. ID                                       : 23
  324. Format                                   : PGS
  325. Muxing mode                              : zlib
  326. Codec ID                                 : S_HDMV/PGS
  327. Codec ID/Info                            : Picture based subtitle format used on BDs/HD-DVDs
  328. Duration                                 : 1 h 54 min
  329. Bit rate                                 : 32.8 kb/s
  330. Count of elements                        : 3468
  331. Stream size                              : 26.7 MiB (0%)
  332. Language                                 : Norwegian
  333. Default                                  : No
  334. Forced                                   : No

  335. Text #20
  336. ID                                       : 24
  337. Format                                   : PGS
  338. Muxing mode                              : zlib
  339. Codec ID                                 : S_HDMV/PGS
  340. Codec ID/Info                            : Picture based subtitle format used on BDs/HD-DVDs
  341. Duration                                 : 1 h 54 min
  342. Bit rate                                 : 28.1 kb/s
  343. Count of elements                        : 3250
  344. Stream size                              : 22.9 MiB (0%)
  345. Language                                 : Polish
  346. Default                                  : No
  347. Forced                                   : No

  348. Text #21
  349. ID                                       : 25
  350. Format                                   : PGS
  351. Muxing mode                              : zlib
  352. Codec ID                                 : S_HDMV/PGS
  353. Codec ID/Info                            : Picture based subtitle format used on BDs/HD-DVDs
  354. Duration                                 : 1 h 54 min
  355. Bit rate                                 : 30.9 kb/s
  356. Count of elements                        : 2748
  357. Stream size                              : 25.2 MiB (0%)
  358. Language                                 : Portuguese
  359. Default                                  : No
  360. Forced                                   : No

  361. Text #22
  362. ID                                       : 26
  363. Format                                   : PGS
  364. Muxing mode                              : zlib
  365. Codec ID                                 : S_HDMV/PGS
  366. Codec ID/Info                            : Picture based subtitle format used on BDs/HD-DVDs
  367. Duration                                 : 1 h 54 min
  368. Bit rate                                 : 34.9 kb/s
  369. Count of elements                        : 3428
  370. Stream size                              : 28.5 MiB (0%)
  371. Language                                 : Portuguese
  372. Default                                  : No
  373. Forced                                   : No

  374. Text #23
  375. ID                                       : 27
  376. Format                                   : PGS
  377. Muxing mode                              : zlib
  378. Codec ID                                 : S_HDMV/PGS
  379. Codec ID/Info                            : Picture based subtitle format used on BDs/HD-DVDs
  380. Duration                                 : 1 h 54 min
  381. Bit rate                                 : 37.4 kb/s
  382. Count of elements                        : 3324
  383. Stream size                              : 30.5 MiB (0%)
  384. Language                                 : Romanian
  385. Default                                  : No
  386. Forced                                   : No

  387. Text #24
  388. ID                                       : 28
  389. Format                                   : PGS
  390. Muxing mode                              : zlib
  391. Codec ID                                 : S_HDMV/PGS
  392. Codec ID/Info                            : Picture based subtitle format used on BDs/HD-DVDs
  393. Duration                                 : 1 h 54 min
  394. Bit rate                                 : 37.2 kb/s
  395. Count of elements                        : 3360
  396. Stream size                              : 30.4 MiB (0%)
  397. Language                                 : Slovak
  398. Default                                  : No
  399. Forced                                   : No

  400. Text #25
  401. ID                                       : 29
  402. Format                                   : PGS
  403. Muxing mode                              : zlib
  404. Codec ID                                 : S_HDMV/PGS
  405. Codec ID/Info                            : Picture based subtitle format used on BDs/HD-DVDs
  406. Duration                                 : 1 h 54 min
  407. Bit rate                                 : 36.6 kb/s
  408. Count of elements                        : 3386
  409. Stream size                              : 29.8 MiB (0%)
  410. Language                                 : Spanish
  411. Default                                  : No
  412. Forced                                   : No

  413. Text #26
  414. ID                                       : 30
  415. Format                                   : PGS
  416. Muxing mode                              : zlib
  417. Codec ID                                 : S_HDMV/PGS
  418. Codec ID/Info                            : Picture based subtitle format used on BDs/HD-DVDs
  419. Duration                                 : 1 h 54 min
  420. Bit rate                                 : 37.7 kb/s
  421. Count of elements                        : 3216
  422. Stream size                              : 30.8 MiB (0%)
  423. Language                                 : Spanish
  424. Default                                  : No
  425. Forced                                   : No

  426. Text #27
  427. ID                                       : 31
  428. Format                                   : PGS
  429. Muxing mode                              : zlib
  430. Codec ID                                 : S_HDMV/PGS
  431. Codec ID/Info                            : Picture based subtitle format used on BDs/HD-DVDs
  432. Duration                                 : 1 h 54 min
  433. Bit rate                                 : 32.3 kb/s
  434. Count of elements                        : 3430
  435. Stream size                              : 26.4 MiB (0%)
  436. Language                                 : Swedish
  437. Default                                  : No
  438. Forced                                   : No

  439. Text #28
  440. ID                                       : 32
  441. Format                                   : PGS
  442. Muxing mode                              : zlib
  443. Codec ID                                 : S_HDMV/PGS
  444. Codec ID/Info                            : Picture based subtitle format used on BDs/HD-DVDs
  445. Duration                                 : 1 h 54 min
  446. Bit rate                                 : 32.3 kb/s
  447. Count of elements                        : 3526
  448. Stream size                              : 26.3 MiB (0%)
  449. Language                                 : Thai
  450. Default                                  : No
  451. Forced                                   : No

  452. Text #29
  453. ID                                       : 33
  454. Format                                   : PGS
  455. Muxing mode                              : zlib
  456. Codec ID                                 : S_HDMV/PGS
  457. Codec ID/Info                            : Picture based subtitle format used on BDs/HD-DVDs
  458. Duration                                 : 1 h 54 min
  459. Bit rate                                 : 32.4 kb/s
  460. Count of elements                        : 3346
  461. Stream size                              : 26.4 MiB (0%)
  462. Language                                 : Turkish
  463. Default                                  : No
  464. Forced                                   : No

  465. Menu
  466. 00:00:00.000                             : en:00:00:00.000
  467. 00:05:07.474                             : en:00:05:07.474
  468. 00:12:01.971                             : en:00:12:01.971
  469. 00:17:38.099                             : en:00:17:38.099
  470. 00:23:33.203                             : en:00:23:33.203
  471. 00:31:31.765                             : en:00:31:31.765
  472. 00:41:09.133                             : en:00:41:09.133
  473. 00:47:35.311                             : en:00:47:35.311
  474. 00:54:37.357                             : en:00:54:37.357
  475. 01:04:05.675                             : en:01:04:05.675
  476. 01:13:49.800                             : en:01:13:49.800
  477. 01:20:21.483                             : en:01:20:21.483
  478. 01:27:58.523                             : en:01:27:58.523
  479. 01:34:54.272                             : en:01:34:54.272
  480. 01:43:09.308                             : en:01:43:09.308
  481. 01:50:51.353                             : en:01:50:51.353
复制代码

复制代码

绝地战警/坏小子 Bad.Boys.1995.2160p.UHD.BluRay.X265.10bit.HDR.TrueHD.7.1.Atmos-TERMiNAL 47.59GB-2.png 绝地战警/坏小子 Bad.Boys.1995.2160p.UHD.BluRay.X265.10bit.HDR.TrueHD.7.1.Atmos-TERMiNAL 47.59GB-3.png 绝地战警/坏小子 Bad.Boys.1995.2160p.UHD.BluRay.X265.10bit.HDR.TrueHD.7.1.Atmos-TERMiNAL 47.59GB-4.png






回复

使用道具 举报

懒得打字嘛,点击右侧快捷回复 【右侧内容,后台自定义】
您需要登录后才可以回帖 登录 | 立即加入

本版积分规则

Archiver|小黑屋| 蓝光电影网 |网站地图

Copyright © 2021 Comsenz Inc. Powered by 蓝光电影网

蓝光电影网

本站内容由用户自主分享和转载自互联网,转载目的在于传递更多信息,并不代表本网赞同其观点和对其真实性负责。

如有侵权、违反国家法律政策行为,请联系我们,我们会第一时间及时清除和处理!

举报反馈邮箱:[email protected]

快速回复 返回顶部 返回列表