找回密码

蓝光电影网

查看: 824|回复: 1

[喜剧] 夏日的嬷嬷茶 Summer.Holiday.2000.MANDARiN.DUBBED.720p.BluRay.x264-REGRET 4.37GB

[复制链接]
蓝光币
623
发表于 2018-9-9 22:08:30 | 显示全部楼层 |阅读模式

夏日的嬷嬷茶 Summer.Holiday.2000.MANDARiN.DUBBED.720p.BluRay.x264-REGRET 4.37GB-1.jpg
◎译  名 夏日么么茶/夏日的么么茶
◎片  名 夏日的嬷嬷茶
◎年  代 2000
◎产  地 香港
◎类  别 笑剧/恋爱
◎语  言 粤语/普通话
◎上映日期 2000-08-12(香港)
◎豆瓣评分 6.7/10 from 66,167 users
◎豆瓣链接 https://movie.douban.com/subject/1297291/
◎片  长 98分钟
◎导  演 马楚成 Jingle Ma
◎主  演 郑秀文 Sammi Cheng
      任贤齐 Richie Jen
      谷德昭 Vincent Kok
      阿牛 Ah-Niu
      沈傲君 Aojun Shen
      王凯蒂
      王光良
      郑斌辉 Ping Hui Tay

◎简  介

  Summer(郑秀文 饰)是一个奇迹型女性,可是她奇迹跟恋爱都失意。她只好来到马来西亚的丹丹岛,那边有一个沙滩是她与表格合资买下来的,恰好传出有财团想收买这个岛,与财团商量卖岛的事之余她还可以度假散心。来到岛上才晓得,表哥也由于欠债的题目把半个沙滩的卖给了一个叫么么茶(任贤齐 饰)确当地人。可是么么茶为了可以让喜好这个沙滩的人继续享用欢乐,分歧意把沙滩卖出。Summer只好软硬兼施,在不知不觉之间两人发生了奥妙的关系,继而展开了一场浪漫恋爱。

◎获奖情况

  第20届香港电影金像奖  (2001)
  最好摄影(提名) 陈国雄 / 马楚成
  最好美术指导(提名) 张世宏
  最好原创电影音乐(提名) 金培达
  最好原创电影歌曲(提名) 任贤齐 / 阿牛 / 光良

  1. Video
  2. ID                                       : 1
  3. Format                                   : AVC
  4. Format/Info                              : Advanced Video Codec
  5. Format profile                           : [url=/cdn-cgi/l/email-protection][email protected][/url]
  6. Format settings                          : CABAC / 5 Ref Frames
  7. Format settings, CABAC                   : Yes
  8. Format settings, RefFrames               : 5 frames
  9. Codec ID                                 : V_MPEG4/ISO/AVC
  10. Duration                                 : 1 h 35 min
  11. Bit rate                                 : 5 122 kb/s
  12. Width                                    : 1 280 pixels
  13. Height                                   : 720 pixels
  14. Display aspect ratio                     : 16:9
  15. Frame rate mode                          : Constant
  16. Frame rate                               : 24.000 FPS
  17. Color space                              : YUV
  18. Chroma subsampling                       : 4:2:0
  19. Bit depth                                : 8 bits
  20. Scan type                                : Progressive
  21. Bits/(Pixel*Frame)                       : 0.232
  22. Stream size                              : 3.42 GiB (78%)
  23. Writing library                          : x264 core 155 r2901 7d0ff22
  24. Encoding settings                        : cabac=1 / ref=5 / deblock=1:-3:-3 / analyse=0x3:0x133 / me=umh / subme=9 / psy=1 / psy_rd=1.00:0.00 / mixed_ref=1 / me_range=16 / chroma_me=1 / trellis=2 / 8x8dct=1 / cqm=0 / deadzone=21,11 / fast_pskip=0 / chroma_qp_offset=-2 / threads=22 / lookahead_threads=1 / sliced_threads=0 / nr=0 / decimate=1 / interlaced=0 / bluray_compat=0 / constrained_intra=0 / bframes=3 / b_pyramid=2 / b_adapt=1 / b_bias=0 / direct=3 / weightb=1 / open_gop=0 / weightp=2 / keyint=240 / keyint_min=24 / scenecut=40 / intra_refresh=0 / rc_lookahead=50 / rc=2pass / mbtree=1 / bitrate=5122 / ratetol=1.0 / qcomp=0.60 / qpmin=0 / qpmax=69 / qpstep=4 / cplxblur=20.0 / qblur=0.5 / ip_ratio=1.40 / aq=1:1.00
  25. Language                                 : English
  26. Default                                  : Yes
  27. Forced                                   : No

  28. Audio
  29. ID                                       : 2
  30. Format                                   : FLAC
  31. Format/Info                              : Free Lossless Audio Codec
  32. Codec ID                                 : A_FLAC
  33. Duration                                 : 1 h 35 min
  34. Bit rate mode                            : Variable
  35. Bit rate                                 : 1 417 kb/s
  36. Channel(s)                               : 2 channels
  37. Channel positions                        : Front: L R
  38. Sampling rate                            : 48.0 kHz
  39. Frame rate                               : 11.719 FPS (4096 SPF)
  40. Bit depth                                : 24 bits
  41. Stream size                              : 970 MiB (22%)
  42. Writing library                          : libFLAC 1.2.1 (UTC 2007-09-17)
  43. Language                                 : Chinese
  44. Default                                  : Yes
  45. Forced                                   : No

  46. Menu
  47. 00:00:00.000                             : en:00:00:00.000
  48. 00:08:45.833                             : en:00:08:45.833
  49. 00:15:39.625                             : en:00:15:39.625
  50. 00:23:19.750                             : en:00:23:19.750
  51. 00:31:17.792                             : en:00:31:17.792
  52. 00:40:28.042                             : en:00:40:28.042
  53. 00:48:00.542                             : en:00:48:00.542
  54. 00:58:23.583                             : en:00:58:23.583
  55. 01:06:47.667                             : en:01:06:47.667
  56. 01:11:46.917                             : en:01:11:46.917
  57. 01:20:28.625                             : en:01:20:28.625
  58. 01:27:04.917                             : en:01:27:04.917
复制代码

复制代码

夏日的嬷嬷茶 Summer.Holiday.2000.MANDARiN.DUBBED.720p.BluRay.x264-REGRET 4.37GB-2.jpg






回复

使用道具 举报

懒得打字嘛,点击右侧快捷回复 【右侧内容,后台自定义】
您需要登录后才可以回帖 登录 | 立即加入

本版积分规则

Archiver|小黑屋| 蓝光电影网 |网站地图

Copyright © 2021 Comsenz Inc. Powered by 蓝光电影网

蓝光电影网

本站内容由用户自主分享和转载自互联网,转载目的在于传递更多信息,并不代表本网赞同其观点和对其真实性负责。

如有侵权、违反国家法律政策行为,请联系我们,我们会第一时间及时清除和处理!

举报反馈邮箱:[email protected]

快速回复 返回顶部 返回列表