找回密码

蓝光电影网

查看: 1128|回复: 0

[剧情] 万籁俱寂/天籁无声 The.Silence.1998.720p.BluRay.x264-GHOULS 3.28GB

[复制链接]
蓝光币
623
发表于 2018-9-9 22:09:22 | 显示全部楼层 |阅读模式

万籁俱寂/天籁无声 The.Silence.1998.720p.BluRay.x264-GHOULS 3.28GB-1.jpg
◎译  名 万籁俱寂/天籁无声
◎片  名 ?????
◎年  代 1998
◎产  地 伊朗/塔吉克斯坦/法国
◎类  别 剧情/音乐
◎语  言 波斯语/塔吉克语/俄语
◎上映日期 1998-09-09
◎豆瓣评分 7.8/10 from 405 users
◎豆瓣链接 https://movie.douban.com/subject/1308371/
◎片  长 76 分钟
◎导  演 莫森·玛克玛尔巴夫 Mohsen Makhmalbaf
◎主  演 Tahmineh Normatova
      Nadereh Abdelahyeva
      Goibibi Ziadolahyeva

◎简  介

  在伊朗的一个小镇里,有一个10岁大与母亲生活在一路的男孩,他与普通孩子唯一的分歧就是双目失明,但天主却给了他极好的听觉。所以,他的工作是在乐器行当调音师,以及创作自己的音乐。天天,他坐车去一个生产乐器的作坊,穿越于都会的喧闹声中,用耳朵感受天下。
  严酷意义上讲,影片并没有给出什么故事,而是以一幅幅让人印象深入的构图,摸索人类与声音的关系,让观众静静地专心去体味,去感受。
  《天籁无声》获邀加入1998年威尼斯国际电影节,并获得"出格关注"在内的三个奖项,被影评人Harlan Kennedy誉为是此次影展中最优异的影片。

◎获奖情况

  第55届威尼斯电影节  (1998)
  主比赛单元 金狮奖 (提名) 莫森·玛克玛尔巴夫

  1. Video
  2. ID                                       : 1
  3. Format                                   : AVC
  4. Format/Info                              : Advanced Video Codec
  5. Format profile                           : [url=/cdn-cgi/l/email-protection][email protected][/url]
  6. Format settings                          : CABAC / 5 Ref Frames
  7. Format settings, CABAC                   : Yes
  8. Format settings, RefFrames               : 5 frames
  9. Codec ID                                 : V_MPEG4/ISO/AVC
  10. Duration                                 : 1 h 16 min
  11. Bit rate                                 : 5 523 kb/s
  12. Width                                    : 1 280 pixels
  13. Height                                   : 688 pixels
  14. Display aspect ratio                     : 1.85:1
  15. Frame rate mode                          : Constant
  16. Frame rate                               : 23.976 (24000/1001) FPS
  17. Color space                              : YUV
  18. Chroma subsampling                       : 4:2:0
  19. Bit depth                                : 8 bits
  20. Scan type                                : Progressive
  21. Bits/(Pixel*Frame)                       : 0.262
  22. Stream size                              : 2.93 GiB (90%)
  23. Writing library                          : x264 core 155 r2901 7d0ff22
  24. Encoding settings                        : cabac=1 / ref=5 / deblock=1:-3:-3 / analyse=0x3:0x133 / me=umh / subme=8 / psy=1 / psy_rd=1.00:0.00 / mixed_ref=1 / me_range=16 / chroma_me=1 / trellis=1 / 8x8dct=1 / cqm=0 / deadzone=21,11 / fast_pskip=0 / chroma_qp_offset=-2 / threads=21 / lookahead_threads=3 / sliced_threads=0 / nr=0 / decimate=1 / interlaced=0 / bluray_compat=0 / constrained_intra=0 / bframes=3 / b_pyramid=2 / b_adapt=1 / b_bias=0 / direct=3 / weightb=1 / open_gop=0 / weightp=2 / keyint=250 / keyint_min=23 / scenecut=40 / intra_refresh=0 / rc_lookahead=50 / rc=2pass / mbtree=1 / bitrate=5523 / ratetol=1.0 / qcomp=0.60 / qpmin=0 / qpmax=69 / qpstep=4 / cplxblur=20.0 / qblur=0.5 / vbv_maxrate=62500 / vbv_bufsize=78125 / nal_hrd=none / filler=0 / ip_ratio=1.40 / aq=1:1.00
  25. Default                                  : Yes
  26. Forced                                   : No

  27. Audio
  28. ID                                       : 2
  29. Format                                   : AC-3
  30. Format/Info                              : Audio Coding 3
  31. Format settings, Endianness              : Big
  32. Codec ID                                 : A_AC3
  33. Duration                                 : 1 h 16 min
  34. Bit rate mode                            : Constant
  35. Bit rate                                 : 640 kb/s
  36. Channel(s)                               : 1 channel
  37. Channel positions                        : Front: C
  38. Sampling rate                            : 48.0 kHz
  39. Frame rate                               : 31.250 FPS (1536 SPF)
  40. Bit depth                                : 16 bits
  41. Compression mode                         : Lossy
  42. Stream size                              : 348 MiB (10%)
  43. Language                                 : Persian
  44. Service kind                             : Complete Main
  45. Default                                  : Yes
  46. Forced                                   : No

  47. Text
  48. ID                                       : 3
  49. Format                                   : UTF-8
  50. Codec ID                                 : S_TEXT/UTF8
  51. Codec ID/Info                            : UTF-8 Plain Text
  52. Duration                                 : 1 h 15 min
  53. Bit rate                                 : 18 b/s
  54. Count of elements                        : 379
  55. Stream size                              : 10.1 KiB (0%)
  56. Language                                 : English
  57. Default                                  : Yes
  58. Forced                                   : No

  59. Menu
  60. 00:00:00.000                             : en:00:00:00.000
  61. 00:06:21.506                             : en:00:06:21.506
  62. 00:13:32.729                             : en:00:13:32.729
  63. 00:21:34.335                             : en:00:21:34.335
  64. 00:28:47.726                             : en:00:28:47.726
  65. 00:32:29.447                             : en:00:32:29.447
  66. 00:39:04.801                             : en:00:39:04.801
  67. 00:43:58.010                             : en:00:43:58.010
  68. 00:51:09.108                             : en:00:51:09.108
  69. 00:56:37.728                             : en:00:56:37.728
  70. 01:02:20.403                             : en:01:02:20.403
  71. 01:09:59.987                             : en:01:09:59.987
复制代码

复制代码

万籁俱寂/天籁无声 The.Silence.1998.720p.BluRay.x264-GHOULS 3.28GB-2.jpg






回复

使用道具 举报

懒得打字嘛,点击右侧快捷回复 【右侧内容,后台自定义】
您需要登录后才可以回帖 登录 | 立即加入

本版积分规则

Archiver|小黑屋| 蓝光电影网 |网站地图

Copyright © 2021 Comsenz Inc. Powered by 蓝光电影网

蓝光电影网

本站内容由用户自主分享和转载自互联网,转载目的在于传递更多信息,并不代表本网赞同其观点和对其真实性负责。

如有侵权、违反国家法律政策行为,请联系我们,我们会第一时间及时清除和处理!

举报反馈邮箱:[email protected]

快速回复 返回顶部 返回列表