找回密码

蓝光电影网

查看: 1875|回复: 2

[惊悚] 冥界 Nightworld.2017.720p.BluRay.x264-RUSTED 3.27GB

  [复制链接]
蓝光币
623
发表于 2018-9-9 22:10:30 | 显示全部楼层 |阅读模式

冥界 Nightworld.2017.720p.BluRay.x264-RUSTED 3.27GB-1.jpg
◎译  名 冥界
◎片  名 Nightworld
◎年  代 2017
◎产  地 美国
◎类  别 惊悚/可骇
◎语  言 英语
◎上映日期 2017-10-20(美国)
◎豆瓣评分 3.9/10 from 558 users
◎豆瓣链接 https://movie.douban.com/subject/26779294/
◎片  长 92分钟
◎导  演 Patricio Valladares
◎主  演 杰森·伦敦 Jason London
      罗伯特·英格兰德 Robert Englund
      Gianni Capaldi
      Lorina Kamburova
      黛安娜·柳贝诺娃 Diana Lyubenova
      阿塔纳斯·斯雷布雷夫 Atanas Srebrev
      Nikolay Valentinov Lukanov
      John Strong
      斯蒂芬·施特雷夫 Stefan Shterev
      Julieta Koleva
      Todor Dotsev
      Dimitar Banchev
      Lyuben Popov

◎简  介

  前洛杉矶差人布雷特在保加利亚都城索非亚,担任一栋旧公寓大楼的安保主管。布雷特很快发现了一股邪恶气力,翻开了冥界与人类天下的大门……

  1. Video
  2. ID                                       : 1
  3. Format                                   : AVC
  4. Format/Info                              : Advanced Video Codec
  5. Format profile                           : [url=/cdn-cgi/l/email-protection][email protected][/url]
  6. Format settings                          : CABAC / 5 Ref Frames
  7. Format settings, CABAC                   : Yes
  8. Format settings, RefFrames               : 5 frames
  9. Codec ID                                 : V_MPEG4/ISO/AVC
  10. Duration                                 : 1 h 31 min
  11. Bit rate                                 : 4 366 kb/s
  12. Width                                    : 1 280 pixels
  13. Height                                   : 536 pixels
  14. Display aspect ratio                     : 2.40:1
  15. Frame rate mode                          : Constant
  16. Frame rate                               : 25.000 FPS
  17. Color space                              : YUV
  18. Chroma subsampling                       : 4:2:0
  19. Bit depth                                : 8 bits
  20. Scan type                                : Progressive
  21. Bits/(Pixel*Frame)                       : 0.255
  22. Stream size                              : 2.78 GiB (85%)
  23. Writing library                          : x264 core 155 r2901 7d0ff22
  24. Encoding settings                        : cabac=1 / ref=5 / deblock=1:-1:-1 / analyse=0x3:0x133 / me=umh / subme=8 / psy=1 / psy_rd=1.00:0.15 / mixed_ref=1 / me_range=16 / chroma_me=1 / trellis=1 / 8x8dct=1 / cqm=0 / deadzone=21,11 / fast_pskip=0 / chroma_qp_offset=-4 / threads=17 / lookahead_threads=2 / sliced_threads=0 / nr=0 / decimate=1 / interlaced=0 / bluray_compat=0 / constrained_intra=0 / bframes=3 / b_pyramid=2 / b_adapt=2 / b_bias=0 / direct=3 / weightb=1 / open_gop=0 / weightp=2 / keyint=240 / keyint_min=23 / scenecut=40 / intra_refresh=0 / rc_lookahead=50 / rc=2pass / mbtree=1 / bitrate=4366 / ratetol=1.0 / qcomp=0.60 / qpmin=10 / qpmax=69 / qpstep=4 / cplxblur=20.0 / qblur=0.5 / ip_ratio=1.40 / aq=1:1.00
  25. Language                                 : English
  26. Default                                  : Yes
  27. Forced                                   : No

  28. Audio
  29. ID                                       : 2
  30. Format                                   : DTS
  31. Format/Info                              : Digital Theater Systems
  32. Mode                                     : 16
  33. Format settings, Endianness              : Big
  34. Codec ID                                 : A_DTS
  35. Duration                                 : 1 h 31 min
  36. Bit rate mode                            : Constant
  37. Bit rate                                 : 768 kb/s
  38. Channel(s)                               : 6 channels
  39. Channel positions                        : Front: L C R, Side: L R, LFE
  40. Sampling rate                            : 48.0 kHz
  41. Frame rate                               : 93.750 FPS (512 SPF)
  42. Bit depth                                : 24 bits
  43. Compression mode                         : Lossy
  44. Stream size                              : 501 MiB (15%)
  45. Language                                 : English
  46. Default                                  : Yes
  47. Forced                                   : No

  48. Menu
  49. 00:00:00.000                             : en:00:00:00.000
  50. 00:01:11.840                             : en:00:01:11.840
  51. 00:06:20.400                             : en:00:06:20.400
  52. 00:14:11.160                             : en:00:14:11.160
  53. 00:22:54.760                             : en:00:22:54.760
  54. 00:29:58.880                             : en:00:29:58.880
  55. 00:36:07.440                             : en:00:36:07.440
  56. 00:44:54.160                             : en:00:44:54.160
  57. 00:58:56.280                             : en:00:58:56.280
  58. 01:09:08.680                             : en:01:09:08.680
  59. 01:24:21.360                             : en:01:24:21.360
  60. 01:29:31.160                             : en:01:29:31.160
复制代码

复制代码








回复

使用道具 举报

蓝光币
19
发表于 2021-8-30 19:43:30 | 显示全部楼层
看看再说
回复

使用道具 举报

懒得打字嘛,点击右侧快捷回复 【右侧内容,后台自定义】
您需要登录后才可以回帖 登录 | 立即加入

本版积分规则

Archiver|小黑屋| 蓝光电影网 |网站地图

Copyright © 2021 Comsenz Inc. Powered by 蓝光电影网

蓝光电影网

本站内容由用户自主分享和转载自互联网,转载目的在于传递更多信息,并不代表本网赞同其观点和对其真实性负责。

如有侵权、违反国家法律政策行为,请联系我们,我们会第一时间及时清除和处理!

举报反馈邮箱:[email protected]

快速回复 返回顶部 返回列表