找回密码

蓝光电影网

查看: 561|回复: 0

[喜剧] 男孩们在哪里/海滩春光 Where.the.Boys.Are.1960.720p.BluRay.x264-REGRET 4.38GB

[复制链接]
蓝光币
623
发表于 2018-9-9 22:13:29 | 显示全部楼层 |阅读模式

男孩们在那里/海滩春景 Where.the.Boys.Are.1960.720p.BluRay.x264-REGRET 4.38GB-1.jpg
◎译  名 男孩们在那里/海滩春景(港)
◎片  名 Where the Boys Are
◎年  代 1960
◎产  地 美国
◎类  别 笑剧/剧情/恋爱
◎语  言 英语
◎上映日期 1960-12-28
◎豆瓣评分 /10 from 0 users
◎豆瓣链接 https://movie.douban.com/subject/3647732/
◎片  长 99 分钟
◎导  演 Henry Levin
◎主  演 George Hamilton
      Dolores Hart
      Yvette Mimieux
      Jim Hutton

◎简  介

  Four very different college girls drive to Fort Lauderdale, Florida for spring break and seek out various adventures and romance for themselves.

  1. Video
  2. ID                                       : 1
  3. Format                                   : AVC
  4. Format/Info                              : Advanced Video Codec
  5. Format profile                           : [url=/cdn-cgi/l/email-protection][email protected][/url]
  6. Format settings                          : CABAC / 5 Ref Frames
  7. Format settings, CABAC                   : Yes
  8. Format settings, RefFrames               : 5 frames
  9. Codec ID                                 : V_MPEG4/ISO/AVC
  10. Duration                                 : 1 h 39 min
  11. Bit rate                                 : 4 794 kb/s
  12. Width                                    : 1 280 pixels
  13. Height                                   : 536 pixels
  14. Display aspect ratio                     : 2.40:1
  15. Frame rate mode                          : Constant
  16. Frame rate                               : 23.976 (24000/1001) FPS
  17. Color space                              : YUV
  18. Chroma subsampling                       : 4:2:0
  19. Bit depth                                : 8 bits
  20. Scan type                                : Progressive
  21. Bits/(Pixel*Frame)                       : 0.291
  22. Stream size                              : 3.32 GiB (76%)
  23. Writing library                          : x264 core 155 r2901 7d0ff22
  24. Encoding settings                        : cabac=1 / ref=5 / deblock=1:-3:-3 / analyse=0x3:0x133 / me=umh / subme=9 / psy=1 / psy_rd=1.00:0.00 / mixed_ref=1 / me_range=16 / chroma_me=1 / trellis=2 / 8x8dct=1 / cqm=0 / deadzone=21,11 / fast_pskip=0 / chroma_qp_offset=-2 / threads=17 / lookahead_threads=1 / sliced_threads=0 / nr=0 / decimate=1 / interlaced=0 / bluray_compat=0 / constrained_intra=0 / bframes=3 / b_pyramid=2 / b_adapt=1 / b_bias=0 / direct=3 / weightb=1 / open_gop=0 / weightp=2 / keyint=240 / keyint_min=24 / scenecut=40 / intra_refresh=0 / rc_lookahead=50 / rc=2pass / mbtree=1 / bitrate=4794 / ratetol=1.0 / qcomp=0.60 / qpmin=0 / qpmax=69 / qpstep=4 / cplxblur=20.0 / qblur=0.5 / ip_ratio=1.40 / aq=1:1.00
  25. Language                                 : English
  26. Default                                  : Yes
  27. Forced                                   : No

  28. Audio
  29. ID                                       : 2
  30. Format                                   : DTS
  31. Format/Info                              : Digital Theater Systems
  32. Mode                                     : 16
  33. Format settings, Endianness              : Big
  34. Codec ID                                 : A_DTS
  35. Duration                                 : 1 h 39 min
  36. Bit rate mode                            : Constant
  37. Bit rate                                 : 1 509 kb/s
  38. Channel(s)                               : 2 channels
  39. Channel positions                        : Front: L R
  40. Sampling rate                            : 48.0 kHz
  41. Frame rate                               : 93.750 FPS (512 SPF)
  42. Bit depth                                : 24 bits
  43. Compression mode                         : Lossy
  44. Stream size                              : 1.05 GiB (24%)
  45. Language                                 : English
  46. Default                                  : Yes
  47. Forced                                   : No

  48. Menu
  49. 00:00:00.000                             : en:00:00:00.000
  50. 00:01:27.504                             : en:00:01:27.504
  51. 00:03:01.390                             : en:00:03:01.390
  52. 00:05:11.311                             : en:00:05:11.311
  53. 00:10:20.245                             : en:00:10:20.245
  54. 00:14:59.941                             : en:00:14:59.941
  55. 00:18:51.505                             : en:00:18:51.505
  56. 00:23:29.450                             : en:00:23:29.450
  57. 00:26:50.400                             : en:00:26:50.400
  58. 00:29:45.492                             : en:00:29:45.492
  59. 00:33:02.439                             : en:00:33:02.439
  60. 00:36:12.962                             : en:00:36:12.962
  61. 00:39:22.110                             : en:00:39:22.110
  62. 00:45:19.467                             : en:00:45:19.467
  63. 00:49:12.408                             : en:00:49:12.408
  64. 00:54:54.082                             : en:00:54:54.082
  65. 00:59:18.638                             : en:00:59:18.638
  66. 00:59:31.401                             : en:00:59:31.401
  67. 01:01:40.322                             : en:01:01:40.322
  68. 01:04:21.149                             : en:01:04:21.149
  69. 01:06:38.995                             : en:01:06:38.995
  70. 01:10:05.034                             : en:01:10:05.034
  71. 01:12:02.944                             : en:01:12:02.944
  72. 01:16:10.316                             : en:01:16:10.316
  73. 01:17:39.989                             : en:01:17:39.989
  74. 01:19:03.530                             : en:01:19:03.530
  75. 01:22:50.299                             : en:01:22:50.299
  76. 01:26:36.441                             : en:01:26:36.441
  77. 01:28:27.636                             : en:01:28:27.636
  78. 01:30:48.652                             : en:01:30:48.652
  79. 01:33:08.708                             : en:01:33:08.708
  80. 01:37:43.399                             : en:01:37:43.399
复制代码

复制代码

男孩们在那里/海滩春景 Where.the.Boys.Are.1960.720p.BluRay.x264-REGRET 4.38GB-2.jpg






回复

使用道具 举报

懒得打字嘛,点击右侧快捷回复 【右侧内容,后台自定义】
您需要登录后才可以回帖 登录 | 立即加入

本版积分规则

Archiver|小黑屋| 蓝光电影网 |网站地图

Copyright © 2021 Comsenz Inc. Powered by 蓝光电影网

蓝光电影网

本站内容由用户自主分享和转载自互联网,转载目的在于传递更多信息,并不代表本网赞同其观点和对其真实性负责。

如有侵权、违反国家法律政策行为,请联系我们,我们会第一时间及时清除和处理!

举报反馈邮箱:[email protected]

快速回复 返回顶部 返回列表