找回密码

蓝光电影网

查看: 649|回复: 1

[动作] 奇謀妙計五福星 Winners.and.Sinners.1983.MANDARiN.DUBBED.720p.BluRay.x264-REGRET 4.37GB

[复制链接]
蓝光币
623
发表于 2018-9-9 22:20:02 | 显示全部楼层 |阅读模式

奇謀妙計五福星 Winners.and.Sinners.1983.MANDARiN.DUBBED.720p.BluRay.x264-REGRET 4.37GB-1.jpg
◎译  名 奇谋奇策五福星
◎片  名 奇謀妙計五福星
◎年  代 1983
◎产  地 香港
◎类  别 行动/笑剧/犯罪
◎语  言 粤语
◎上映日期 1983-07-07
◎豆瓣评分 7.6/10 from 15,951 users
◎豆瓣链接 https://movie.douban.com/subject/1293658/
◎片  长 108 分钟
◎导  演 洪金宝
◎主  演 洪金宝
      吴耀汉
      冯淬帆
      岑建勋
      秦祥林
      钟楚红
      成龙
      叶童
      林正英
      夏文汐
      太保
      元彪
      李赛凤
      午马 Wu Ma

◎简  介

  狱中5个素昧生平的人成了好兄弟——五福星。茶壶(洪金宝 饰)、暮气喉(吴耀汉 饰)、卷毛积(岑建勋 饰)、凡士林(秦祥林 饰)和鲁奇(冯淬帆 饰)五人皆因小偷小摸或跑龙套成了冤大头,他们决心出狱后重新做人,光亮正大挣钱。五人同一天出狱了,出狱后他们合资建立了一间清洁公司,专门帮公司或家居停止清洁。
  一天,黑帮在买卖制贩假炒的电版时,被当地一个愣差人撞见了。忙乱之下,他们将电版藏进了五福星的清洁车的清洁箱内。绝不知情的五福星就这样又无故卷入了江湖是非中:一方面,差人思疑他们是黑帮朋友,在四出通缉他们;另一方面,黑帮也在追随他们,想杀人灭口取回电版。五福星在进退失据的地步若何应用他们的奇谋奇策脱险?

◎获奖情况

  第3届香港电影金像奖  (1984)
  最好男配角(提名) 吴耀汉
  最好行动设想 元彪 / 陈会毅 / 林正英

  1. Video
  2. ID                                       : 1
  3. Format                                   : AVC
  4. Format/Info                              : Advanced Video Codec
  5. Format profile                           : [url=/cdn-cgi/l/email-protection][email protected][/url]
  6. Format settings                          : CABAC / 5 Ref Frames
  7. Format settings, CABAC                   : Yes
  8. Format settings, RefFrames               : 5 frames
  9. Codec ID                                 : V_MPEG4/ISO/AVC
  10. Duration                                 : 1 h 48 min
  11. Bit rate                                 : 5 139 kb/s
  12. Width                                    : 1 280 pixels
  13. Height                                   : 696 pixels
  14. Display aspect ratio                     : 1.85:1
  15. Frame rate mode                          : Constant
  16. Frame rate                               : 23.976 (24000/1001) FPS
  17. Color space                              : YUV
  18. Chroma subsampling                       : 4:2:0
  19. Bit depth                                : 8 bits
  20. Scan type                                : Progressive
  21. Bits/(Pixel*Frame)                       : 0.241
  22. Stream size                              : 3.88 GiB (89%)
  23. Writing library                          : x264 core 155 r2901 7d0ff22
  24. Encoding settings                        : cabac=1 / ref=5 / deblock=1:-3:-3 / analyse=0x3:0x133 / me=umh / subme=9 / psy=1 / psy_rd=1.00:0.00 / mixed_ref=1 / me_range=16 / chroma_me=1 / trellis=2 / 8x8dct=1 / cqm=0 / deadzone=21,11 / fast_pskip=0 / chroma_qp_offset=-2 / threads=22 / lookahead_threads=1 / sliced_threads=0 / nr=0 / decimate=1 / interlaced=0 / bluray_compat=0 / constrained_intra=0 / bframes=3 / b_pyramid=2 / b_adapt=1 / b_bias=0 / direct=3 / weightb=1 / open_gop=0 / weightp=2 / keyint=240 / keyint_min=24 / scenecut=40 / intra_refresh=0 / rc_lookahead=50 / rc=2pass / mbtree=1 / bitrate=5139 / ratetol=1.0 / qcomp=0.60 / qpmin=0 / qpmax=69 / qpstep=4 / cplxblur=20.0 / qblur=0.5 / ip_ratio=1.40 / aq=1:1.00
  25. Language                                 : English
  26. Default                                  : Yes
  27. Forced                                   : No

  28. Audio
  29. ID                                       : 2
  30. Format                                   : AC-3
  31. Format/Info                              : Audio Coding 3
  32. Format settings, Endianness              : Big
  33. Codec ID                                 : A_AC3
  34. Duration                                 : 1 h 48 min
  35. Bit rate mode                            : Constant
  36. Bit rate                                 : 640 kb/s
  37. Channel(s)                               : 6 channels
  38. Channel positions                        : Front: L C R, Side: L R, LFE
  39. Sampling rate                            : 48.0 kHz
  40. Frame rate                               : 31.250 FPS (1536 SPF)
  41. Bit depth                                : 16 bits
  42. Compression mode                         : Lossy
  43. Stream size                              : 495 MiB (11%)
  44. Language                                 : Chinese
  45. Service kind                             : Complete Main
  46. Default                                  : Yes
  47. Forced                                   : No

  48. Menu
  49. 00:00:00.000                             : en:00:00:00.000
  50. 00:04:25.432                             : en:00:04:25.432
  51. 00:09:28.485                             : en:00:09:28.485
  52. 00:13:17.839                             : en:00:13:17.839
  53. 00:19:13.694                             : en:00:19:13.694
  54. 00:25:40.914                             : en:00:25:40.914
  55. 00:32:24.276                             : en:00:32:24.276
  56. 00:38:09.787                             : en:00:38:09.787
  57. 00:43:37.031                             : en:00:43:37.031
  58. 00:48:23.818                             : en:00:48:23.818
  59. 00:53:16.944                             : en:00:53:16.944
  60. 00:59:29.399                             : en:00:59:29.399
  61. 01:05:31.219                             : en:01:05:31.219
  62. 01:09:34.962                             : en:01:09:34.962
  63. 01:16:58.364                             : en:01:16:58.364
  64. 01:21:54.952                             : en:01:21:54.952
  65. 01:26:38.902                             : en:01:26:38.902
  66. 01:31:32.862                             : en:01:31:32.862
  67. 01:39:18.661                             : en:01:39:18.661
  68. 01:44:05.406                             : en:01:44:05.406
复制代码

复制代码

奇謀妙計五福星 Winners.and.Sinners.1983.MANDARiN.DUBBED.720p.BluRay.x264-REGRET 4.37GB-2.jpg






回复

使用道具 举报

懒得打字嘛,点击右侧快捷回复 【右侧内容,后台自定义】
您需要登录后才可以回帖 登录 | 立即加入

本版积分规则

Archiver|小黑屋| 蓝光电影网 |网站地图

Copyright © 2021 Comsenz Inc. Powered by 蓝光电影网

蓝光电影网

本站内容由用户自主分享和转载自互联网,转载目的在于传递更多信息,并不代表本网赞同其观点和对其真实性负责。

如有侵权、违反国家法律政策行为,请联系我们,我们会第一时间及时清除和处理!

举报反馈邮箱:[email protected]

快速回复 返回顶部 返回列表