找回密码

蓝光电影网

查看: 746|回复: 1

[爱情] 折翅蝴蝶 Butterfly.Caught.2017.720p.BluRay.x264.DTS-MT 4.54GB

[复制链接]
蓝光币
623
发表于 2018-9-9 22:23:31 | 显示全部楼层 |阅读模式

折翅蝴蝶 Butterfly.Caught.2017.720p.BluRay.x264.DTS-MT 4.54GB-1.jpg
◎译  名 折翅蝴蝶
◎片  名 Butterfly Caught
◎年  代 2016
◎产  地 美国
◎类  别 剧情
◎语  言 英语
◎上映日期 2016-01-19(美国)
◎豆瓣评分 /10 from 0 users
◎豆瓣链接 https://movie.douban.com/subject/26634835/
◎导  演 Manny Rodriguez Jr.
◎主  演 艾莉克斯·斯甘巴蒂 Alexandra Sgambati
      洁思·雅各布斯 Jess Jacobs
      阿比盖尔·克莱因 Abigail Klein
      乔纳森·斯卡奇 Johnathon Schaech
      托尼·普拉纳 Tony Plana
      Grant Liffmann
      Adam Ambruso
      Jake Olson
      钱德勒·马西 Chandler Massey
      Wolfgang Bodison
      多米尼克·博加特 Dominic Bogart
      威尔·华莱士 Will Wallace

◎简  介

  Three aspiring young women (Naomi, Joe, and Elsa) embark on a mission to break into the acting business. Naomi, the most seasoned of the roommates, is the full package.  She's a sexy, confident, and an experienced talent on the verge of breaking through.  Joe has the tools and the passion, but perhaps lacks the focus.  And Elsa is a fresh-off-the-bus beginner who arrives to the scene excited, energetic, and naive.
  Upon arrival, Elsa receives a crash course in the world of acting.  She's fortunate enough to see the process for her roommate unfold right before her eyes.  After years of constant rejection, countless auditions, and honing her craft, Naomi may have finally caught a break.  But, her grasp on the newly acquired role is tenuous - and she might have to give up more than she bargained for to hold onto it.  Elsa follows suit and manages to book a commercial - which frustrates Joe, who has much more experience, but can't catch a break.
  As the pressure mounts, cracks and insecurities are exposed, and everyone unravels.  Joe and her boyfriend (Damian) are enticed by the easy escape of drugs.  Naomi is forced to take matters into her own hands desperately attempting to salvage the role of a lifetime.  And, Elsa's past quickly catches up to her temporary success.  And, even though they all are completely aware of the surrounding evils of their desired career, the short-cuts to achieving instant fame will always be tempting.  Especially when the window of success in such a competitive culture is so small and saturated with people who are no different than you.
  Audiences will agree, Butterfly Caught captures the competitive grind of an actor and the thirst for relevance in a city that often recycles through talent and destroys ambitions.  We assure you, even through this film depicts brutal truth, Butterfly Caught is a fun and entertaining ride with interesting characters and a refreshing look at the business and process that captivates us.  Even through its realism, its message and outcome still serves as inspiration to struggling artists everywhere.

  1. Video
  2. ID                                       : 1
  3. Format                                   : AVC
  4. Format/Info                              : Advanced Video Codec
  5. Format profile                           : [url=/cdn-cgi/l/email-protection][email protected][/url]
  6. Format settings                          : CABAC / 12 Ref Frames
  7. Format settings, CABAC                   : Yes
  8. Format settings, ReFrames                : 12 frames
  9. Codec ID                                 : V_MPEG4/ISO/AVC
  10. Duration                                 : 1 h 47 min
  11. Bit rate                                 : 4 545 kb/s
  12. Width                                    : 1 280 pixels
  13. Height                                   : 536 pixels
  14. Display aspect ratio                     : 2.40:1
  15. Frame rate mode                          : Constant
  16. Frame rate                               : 23.976 (24000/1001) FPS
  17. Color space                              : YUV
  18. Chroma subsampling                       : 4:2:0
  19. Bit depth                                : 8 bits
  20. Scan type                                : Progressive
  21. Bits/(Pixel*Frame)                       : 0.276
  22. Stream size                              : 3.41 GiB (75%)
  23. Writing library                          : x264 core 155 r2901 7d0ff22
  24. Encoding settings                        : cabac=1 / ref=12 / deblock=1:-3:-3 / analyse=0x3:0x133 / me=umh / subme=11 / psy=1 / psy_rd=1.05:0.00 / mixed_ref=1 / me_range=32 / chroma_me=1 / trellis=2 / 8x8dct=1 / cqm=0 / deadzone=21,11 / fast_pskip=0 / chroma_qp_offset=-2 / threads=12 / lookahead_threads=2 / sliced_threads=0 / nr=0 / decimate=0 / interlaced=0 / bluray_compat=0 / constrained_intra=0 / bframes=8 / b_pyramid=2 / b_adapt=2 / b_bias=0 / direct=3 / weightb=1 / open_gop=0 / weightp=2 / keyint=250 / keyint_min=24 / scenecut=40 / intra_refresh=0 / rc_lookahead=250 / rc=crf / mbtree=0 / crf=16.5 / qcomp=0.60 / qpmin=0 / qpmax=69 / qpstep=4 / vbv_maxrate=62500 / vbv_bufsize=78125 / crf_max=0.0 / nal_hrd=none / filler=0 / ip_ratio=1.30 / pb_ratio=1.20 / aq=3:0.80
  25. Language                                 : English
  26. Default                                  : Yes
  27. Forced                                   : No

  28. Audio
  29. ID                                       : 2
  30. Format                                   : DTS
  31. Format/Info                              : Digital Theater Systems
  32. Codec ID                                 : A_DTS
  33. Duration                                 : 1 h 47 min
  34. Bit rate mode                            : Constant
  35. Bit rate                                 : 1 509 kb/s
  36. Channel(s)                               : 6 channels
  37. Channel positions                        : Front: L C R, Side: L R, LFE
  38. Sampling rate                            : 48.0 kHz
  39. Frame rate                               : 93.750 FPS (512 SPF)
  40. Bit depth                                : 24 bits
  41. Compression mode                         : Lossy
  42. Stream size                              : 1.13 GiB (25%)
  43. Language                                 : English
  44. Default                                  : Yes
  45. Forced                                   : No

  46. Text
  47. ID                                       : 3
  48. Format                                   : UTF-8
  49. Codec ID                                 : S_TEXT/UTF8
  50. Codec ID/Info                            : UTF-8 Plain Text
  51. Duration                                 : 1 h 43 min
  52. Bit rate                                 : 57 b/s
  53. Count of elements                        : 1444
  54. Stream size                              : 43.4 KiB (0%)
  55. Language                                 : English
  56. Default                                  : Yes
  57. Forced                                   : No

  58. Menu
  59. 00:00:00.000                             : en:Chapter 1
  60. 00:09:16.847                             : en:Chapter 2
  61. 00:20:26.850                             : en:Chapter 3
  62. 00:29:51.080                             : en:Chapter 4
  63. 00:41:22.021                             : en:Chapter 5
  64. 00:50:02.124                             : en:Chapter 6
  65. 01:01:03.368                             : en:Chapter 7
  66. 01:09:17.653                             : en:Chapter 8
  67. 01:19:58.418                             : en:Chapter 9
  68. 01:30:01.104                             : en:Chapter 10
  69. 01:41:15.944                             : en:Chapter 11
  70. 01:47:16.471                             : en:Chapter 12
复制代码

复制代码

折翅蝴蝶 Butterfly.Caught.2017.720p.BluRay.x264.DTS-MT 4.54GB-2.png 折翅蝴蝶 Butterfly.Caught.2017.720p.BluRay.x264.DTS-MT 4.54GB-3.png 折翅蝴蝶 Butterfly.Caught.2017.720p.BluRay.x264.DTS-MT 4.54GB-4.png






回复

使用道具 举报

懒得打字嘛,点击右侧快捷回复 【右侧内容,后台自定义】
您需要登录后才可以回帖 登录 | 立即加入

本版积分规则

Archiver|小黑屋| 蓝光电影网 |网站地图

Copyright © 2021 Comsenz Inc. Powered by 蓝光电影网

蓝光电影网

本站内容由用户自主分享和转载自互联网,转载目的在于传递更多信息,并不代表本网赞同其观点和对其真实性负责。

如有侵权、违反国家法律政策行为,请联系我们,我们会第一时间及时清除和处理!

举报反馈邮箱:[email protected]

快速回复 返回顶部 返回列表