找回密码

蓝光电影网

查看: 661|回复: 0

[恐怖] 恶魔/哭泣的恶魔 The.Evil.1978.720p.BluRay.x264-HD4U 3.27GB

[复制链接]
蓝光币
623
发表于 2018-9-9 22:27:27 | 显示全部楼层 |阅读模式

恶魔/抽泣的恶魔 The.Evil.1978.720p.BluRay.x264-HD4U 3.27GB-1.jpg
◎译  名 恶魔/抽泣的恶魔
◎片  名 The Evil
◎年  代 1978
◎产  地 美国
◎类  别 可骇/惊悚
◎语  言 英语/法语
◎上映日期 1978-05-05(美國)
◎豆瓣评分 /10 from 0 users
◎豆瓣链接 https://movie.douban.com/subject/2240994/
◎片  长 89 分钟
◎导  演 Gus Trikonis
◎主  演 Richard Crenna
      乔安娜·佩蒂 Joanna Pettet
      安德鲁·普莱尼 Andrew Prine
      Cassie Yates
      George O'Hanlon Jr.
      Lynne Moody
      Mary Louise Weller
      Robert Viharo
      维克多·布鲁诺 Victor Buono
      米尔顿·塞勒泽 Milton Selzer
      埃德·巴基 Ed Bakey
      Galen Thompson
      Emory Souza

◎简  介

  C.J. Arnold买下了一栋内战期间陈旧的大厦,并雇佣了几个好友一路修复它,但这座大厦似乎经常闹鬼。。。

  1. Video
  2. ID                                       : 1
  3. Format                                   : AVC
  4. Format/Info                              : Advanced Video Codec
  5. Format profile                           : [url=/cdn-cgi/l/email-protection][email protected][/url]
  6. Format settings                          : CABAC / 5 Ref Frames
  7. Format settings, CABAC                   : Yes
  8. Format settings, RefFrames               : 5 frames
  9. Codec ID                                 : V_MPEG4/ISO/AVC
  10. Duration                                 : 1 h 28 min
  11. Bit rate                                 : 4 635 kb/s
  12. Width                                    : 1 280 pixels
  13. Height                                   : 688 pixels
  14. Display aspect ratio                     : 1.85:1
  15. Frame rate mode                          : Constant
  16. Frame rate                               : 24.000 FPS
  17. Color space                              : YUV
  18. Chroma subsampling                       : 4:2:0
  19. Bit depth                                : 8 bits
  20. Scan type                                : Progressive
  21. Bits/(Pixel*Frame)                       : 0.219
  22. Stream size                              : 2.86 GiB (88%)
  23. Writing library                          : x264 core 155 r2901 7d0ff22
  24. Encoding settings                        : cabac=1 / ref=5 / deblock=1:-3:-3 / analyse=0x3:0x113 / me=umh / subme=8 / psy=1 / psy_rd=1.00:0.25 / mixed_ref=1 / me_range=24 / chroma_me=1 / trellis=1 / 8x8dct=1 / cqm=0 / deadzone=21,11 / fast_pskip=1 / chroma_qp_offset=-4 / threads=21 / lookahead_threads=3 / sliced_threads=0 / nr=0 / decimate=1 / interlaced=0 / bluray_compat=0 / constrained_intra=0 / bframes=3 / b_pyramid=2 / b_adapt=1 / b_bias=0 / direct=3 / weightb=1 / open_gop=0 / weightp=2 / keyint=240 / keyint_min=24 / scenecut=40 / intra_refresh=0 / rc_lookahead=50 / rc=2pass / mbtree=1 / bitrate=4635 / ratetol=1.0 / qcomp=0.60 / qpmin=0 / qpmax=69 / qpstep=4 / cplxblur=20.0 / qblur=0.5 / ip_ratio=1.40 / aq=1:0.75
  25. Default                                  : Yes
  26. Forced                                   : No

  27. Audio
  28. ID                                       : 2
  29. Format                                   : FLAC
  30. Format/Info                              : Free Lossless Audio Codec
  31. Codec ID                                 : A_FLAC
  32. Duration                                 : 1 h 28 min
  33. Bit rate mode                            : Variable
  34. Bit rate                                 : 659 kb/s
  35. Channel(s)                               : 2 channels
  36. Channel positions                        : Front: L R
  37. Sampling rate                            : 48.0 kHz
  38. Frame rate                               : 11.719 FPS (4096 SPF)
  39. Bit depth                                : 24 bits
  40. Stream size                              : 417 MiB (12%)
  41. Writing library                          : libFLAC 1.2.1 (UTC 2007-09-17)
  42. Language                                 : English
  43. Default                                  : Yes
  44. Forced                                   : No

  45. Menu
  46. 00:00:00.000                             : en:00:00:00.000
  47. 00:07:04.500                             : en:00:07:04.500
  48. 00:14:13.750                             : en:00:14:13.750
  49. 00:19:41.583                             : en:00:19:41.583
  50. 00:26:04.667                             : en:00:26:04.667
  51. 00:34:45.542                             : en:00:34:45.542
  52. 00:41:31.667                             : en:00:41:31.667
  53. 00:49:42.458                             : en:00:49:42.458
  54. 00:58:05.917                             : en:00:58:05.917
  55. 01:06:46.083                             : en:01:06:46.083
  56. 01:14:40.375                             : en:01:14:40.375
  57. 01:20:03.875                             : en:01:20:03.875
复制代码

复制代码

恶魔/抽泣的恶魔 The.Evil.1978.720p.BluRay.x264-HD4U 3.27GB-2.jpg






回复

使用道具 举报

懒得打字嘛,点击右侧快捷回复 【右侧内容,后台自定义】
您需要登录后才可以回帖 登录 | 立即加入

本版积分规则

Archiver|小黑屋| 蓝光电影网 |网站地图

Copyright © 2021 Comsenz Inc. Powered by 蓝光电影网

蓝光电影网

本站内容由用户自主分享和转载自互联网,转载目的在于传递更多信息,并不代表本网赞同其观点和对其真实性负责。

如有侵权、违反国家法律政策行为,请联系我们,我们会第一时间及时清除和处理!

举报反馈邮箱:[email protected]

快速回复 返回顶部 返回列表