找回密码

蓝光电影网

查看: 1364|回复: 1

遗传厄运/宿怨 Hereditary.2018.2160p.BluRay.x265.10bit.SDR.DTS-HD.MA.5.1-SWTYBLZ 35.88GB

[复制链接]
蓝光币
623
发表于 2018-9-9 23:07:58 | 显示全部楼层 |阅读模式


◎译  名 遗传恶运/宿怨(台)/祖孽(港)/恶运遗传
◎片  名 Hereditary
◎年  代 2018
◎产  地 美国
◎类  别 悬疑/惊悚/可骇
◎语  言 英语
◎上映日期 2018-01-21(圣丹斯电影节)/2018-06-08(美国)
◎豆瓣评分 7.2/10 from 34,514 users
◎豆瓣链接 https://movie.douban.com/subject/27621727/
◎片  长 127分钟
◎导  演 阿里·艾斯特 Ari Aster
◎主  演 亚历克斯·沃尔夫 Alex Wolff
      加布里埃尔·伯恩 Gabriel Byrne
      托妮·科莱特 Toni Collette
      米莉·夏普洛 Milly Shapiro
      克里斯蒂·萨默海斯 Christy Summerhays
      摩根·伦德 Morgan Lund
      马洛里·贝克特尔 Mallory Bechtel
      杰克·布朗 Jake Brown
      布赖恩·拉谢尔 BriAnn Rachele
      海蒂·门德兹 Heidi Méndez
      莫伊塞斯 L·托瓦 Moises L. Tovar
      贾罗德·菲利普斯 Jarrod Phillips
      安·唐德 Ann Dowd
      布罗克·麦金尼 Brock McKinney
      扎克瑞·亚瑟 Zachary Arthur
      奥斯丁·R·格兰特 Austin R. Grant

◎简  介

  安妮(托妮·科莱特 Toni Collette 饰)和丈夫史蒂文(加布里埃尔·伯恩 Gabriel Byrne 饰)带着大儿子皮特(亚历克斯·沃尔夫 Alex Wolff 饰)生活,他们的小女儿查理(米莉·夏普洛 Milly Shapiro 饰)则交由安妮的母亲艾伦抚养 。现实上,安妮和母亲之间的关系非常冷淡,艾伦归天后,查理重新回到了怙恃的身旁。
  自从查理回家以后,家里便起头持续不断的发生诡异的事务。奥秘的图腾,陌生的姓名以及神出鬼没的不速之客让这个家庭被覆盖在压制的氛围当中。由于皮特的疏忽,一场车祸夺走了查理的人命,查理的死加速了各家庭成员之间的割裂,在安妮最失望的日子里,一个名叫乔安(安·唐德 Ann Dowd 饰)的女人出现在了她的身旁,她宣称自己具有可以呼唤灵魂的特异功用。

  1. Video
  2. ID                                       : 1
  3. Format                                   : HEVC
  4. Format/Info                              : High Efficiency Video Coding
  5. Format profile                           : Main [url=/cdn-cgi/l/email-protection][email protected][/url]@High
  6. Codec ID                                 : V_MPEGH/ISO/HEVC
  7. Duration                                 : 2 h 7 min
  8. Bit rate                                 : 36.1 Mb/s
  9. Width                                    : 3 840 pixels
  10. Height                                   : 1 920 pixels
  11. Display aspect ratio                     : 2.000
  12. Frame rate mode                          : Constant
  13. Frame rate                               : 23.976 (24000/1001) FPS
  14. Color space                              : YUV
  15. Chroma subsampling                       : 4:2:0
  16. Bit depth                                : 10 bits
  17. Bits/(Pixel*Frame)                       : 0.204
  18. Stream size                              : 32.2 GiB (90%)
  19. Title                                    : Hereditary.2018.2160p.BluRay.x265.10bit.SDR.DTS-HD.MA.5.1-SWTYBLZ
  20. Writing library                          : x265 2.8+54-79c76e42cb28:[Windows][GCC 7.3.1][64 bit] 10bit
  21. Encoding settings                        : cpuid=1111039 / frame-threads=16 / numa-pools=24,24,24,24 / wpp / no-pmode / no-pme / no-psnr / no-ssim / log-level=2 / input-csp=1 / input-res=3840x1920 / interlace=0 / total-frames=0 / level-idc=51 / high-tier=1 / uhd-bd=0 / ref=3 / no-allow-non-conformance / repeat-headers / annexb / aud / hrd / info / hash=0 / no-temporal-layers / no-open-gop / min-keyint=1 / keyint=24 / gop-lookahead=0 / bframes=4 / b-adapt=2 / b-pyramid / bframe-bias=0 / rc-lookahead=25 / lookahead-slices=4 / scenecut=40 / radl=0 / no-intra-refresh / ctu=64 / min-cu-size=8 / no-rect / no-amp / max-tu-size=32 / tu-inter-depth=1 / tu-intra-depth=1 / limit-tu=0 / rdoq-level=0 / dynamic-rd=0.00 / no-ssim-rd / signhide / no-tskip / nr-intra=0 / nr-inter=0 / no-constrained-intra / strong-intra-smoothing / max-merge=2 / limit-refs=3 / no-limit-modes / me=1 / subme=2 / merange=57 / temporal-mvp / weightp / no-weightb / no-analyze-src-pics / deblock=0:0 / no-sao / no-sao-non-deblock / rd=3 / no-early-skip / rskip / no-fast-intra / no-tskip-fast / no-cu-lossless / no-b-intra / no-splitrd-skip / rdpenalty=0 / psy-rd=2.00 / psy-rdoq=0.00 / no-rd-refine / no-lossless / cbqpoffs=0 / crqpoffs=0 / rc=crf / crf=16.0 / qcomp=0.60 / qpstep=4 / stats-write=0 / stats-read=0 / vbv-maxrate=160000 / vbv-bufsize=160000 / vbv-init=0.9 / crf-max=0.0 / crf-min=0.0 / ipratio=1.40 / pbratio=1.30 / aq-mode=1 / aq-strength=1.00 / cutree / zone-count=0 / no-strict-cbr / qg-size=32 / no-rc-grain / qpmax=69 / qpmin=0 / no-const-vbv / sar=1 / overscan=0 / videoformat=5 / range=0 / colorprim=2 / transfer=2 / colormatrix=2 / chromaloc=0 / display-window=0 / max-cll=0,0 / min-luma=0 / max-luma=1023 / log2-max-poc-lsb=8 / vui-timing-info / vui-hrd-info / slices=1 / opt-qp-pps / opt-ref-list-length-pps / no-multi-pass-opt-rps / scenecut-bias=0.05 / no-opt-cu-delta-qp / no-aq-motion / no-hdr / no-hdr-opt / no-dhdr10-opt / no-idr-recovery-sei / analysis-reuse-level=5 / scale-factor=0 / refine-intra=0 / refine-inter=0 / refine-mv=0 / no-limit-sao / ctu-info=0 / no-lowpass-dct / refine-mv-type=0 / copy-pic=1 / max-ausize-factor=1.0 / no-dynamic-refine / no-single-sei
  22. Language                                 : English
  23. Default                                  : Yes
  24. Forced                                   : No

  25. Audio #1
  26. ID                                       : 2
  27. Format                                   : DTS
  28. Format/Info                              : Digital Theater Systems
  29. Format profile                           : MA / Core
  30. Codec ID                                 : A_DTS
  31. Duration                                 : 2 h 7 min
  32. Bit rate mode                            : Variable / Constant
  33. Bit rate                                 : 3 375 kb/s / 1 509 kb/s
  34. Channel(s)                               : 6 channels
  35. Channel positions                        : Front: L C R, Side: L R, LFE
  36. Sampling rate                            : 48.0 kHz
  37. Frame rate                               : 93.750 FPS (512 SPF)
  38. Bit depth                                : 24 bits
  39. Compression mode                         : Lossless / Lossy
  40. Stream size                              : 3.00 GiB (8%)
  41. Title                                    : Hereditary.2018.2160p.BluRay.x265.10bit.SDR.DTS-HD.MA.5.1-SWTYBLZ
  42. Language                                 : English
  43. Default                                  : Yes
  44. Forced                                   : No

  45. Audio #2
  46. ID                                       : 3
  47. Format                                   : AC-3
  48. Format/Info                              : Audio Coding 3
  49. Codec ID                                 : A_AC3
  50. Duration                                 : 2 h 7 min
  51. Bit rate mode                            : Constant
  52. Bit rate                                 : 640 kb/s
  53. Channel(s)                               : 6 channels
  54. Channel positions                        : Front: L C R, Side: L R, LFE
  55. Sampling rate                            : 48.0 kHz
  56. Frame rate                               : 31.250 FPS (1536 SPF)
  57. Bit depth                                : 16 bits
  58. Compression mode                         : Lossy
  59. Stream size                              : 583 MiB (2%)
  60. Title                                    : Hereditary.2018.2160p.BluRay.x265.10bit.SDR.DTS-HD.MA.5.1-SWTYBLZ
  61. Language                                 : English
  62. Service kind                             : Complete Main
  63. Default                                  : No
  64. Forced                                   : No

  65. Text #1
  66. ID                                       : 4
  67. Format                                   : UTF-8
  68. Codec ID                                 : S_TEXT/UTF8
  69. Codec ID/Info                            : UTF-8 Plain Text
  70. Duration                                 : 2 h 0 min
  71. Bit rate                                 : 33 b/s
  72. Count of elements                        : 1008
  73. Stream size                              : 29.3 KiB (0%)
  74. Title                                    : English-SRT
  75. Language                                 : English
  76. Default                                  : Yes
  77. Forced                                   : No

  78. Text #2
  79. ID                                       : 5
  80. Format                                   : PGS
  81. Muxing mode                              : zlib
  82. Codec ID                                 : S_HDMV/PGS
  83. Codec ID/Info                            : Picture based subtitle format used on BDs/HD-DVDs
  84. Duration                                 : 2 h 0 min
  85. Bit rate                                 : 28.0 kb/s
  86. Count of elements                        : 2494
  87. Stream size                              : 24.1 MiB (0%)
  88. Title                                    : English-PGS
  89. Language                                 : English
  90. Default                                  : No
  91. Forced                                   : No

  92. Text #3
  93. ID                                       : 6
  94. Format                                   : PGS
  95. Muxing mode                              : zlib
  96. Codec ID                                 : S_HDMV/PGS
  97. Codec ID/Info                            : Picture based subtitle format used on BDs/HD-DVDs
  98. Duration                                 : 2 h 6 min
  99. Bit rate                                 : 20.6 kb/s
  100. Count of elements                        : 1880
  101. Stream size                              : 18.6 MiB (0%)
  102. Title                                    : Spanish-PGS
  103. Language                                 : Spanish
  104. Default                                  : No
  105. Forced                                   : No

  106. Menu
  107. 00:00:00.000                             : :Chapter 1
  108. 00:06:03.321                             : :Chapter 2
  109. 00:13:34.146                             : :Chapter 3
  110. 00:23:01.129                             : :Chapter 4
  111. 00:26:31.172                             : :Chapter 5
  112. 00:34:57.762                             : :Chapter 6
  113. 00:40:56.495                             : :Chapter 7
  114. 00:47:23.090                             : :Chapter 8
  115. 00:54:34.396                             : :Chapter 9
  116. 01:04:02.880                             : :Chapter 10
  117. 01:08:55.631                             : :Chapter 11
  118. 01:19:35.854                             : :Chapter 12
  119. 01:25:09.395                             : :Chapter 13
  120. 01:32:50.314                             : :Chapter 14
  121. 01:40:01.412                             : :Chapter 15
  122. 01:53:21.377                             : :Chapter 16
复制代码

复制代码








回复

使用道具 举报

懒得打字嘛,点击右侧快捷回复 【右侧内容,后台自定义】
您需要登录后才可以回帖 登录 | 立即加入

本版积分规则

Archiver|小黑屋| 蓝光电影网 |网站地图

Copyright © 2021 Comsenz Inc. Powered by 蓝光电影网

蓝光电影网

本站内容由用户自主分享和转载自互联网,转载目的在于传递更多信息,并不代表本网赞同其观点和对其真实性负责。

如有侵权、违反国家法律政策行为,请联系我们,我们会第一时间及时清除和处理!

举报反馈邮箱:[email protected]

快速回复 返回顶部 返回列表