找回密码

蓝光电影网

查看: 13436|回复: 21

[8bit.SDR] 侏罗纪世界2/侏罗纪世界:殒落国度 Jurassic.World.Fallen.Kingdom.2018.2160p.BluRay.x264.8bit.SDR.DTS-X.7.1-SWTYBLZ 18.46GB

  [复制链接]
蓝光币
821
发表于 2018-9-10 00:06:04 | 显示全部楼层
强烈支持楼主ing……
回复 支持 反对

使用道具 举报

蓝光币
674
发表于 2018-9-10 07:27:57 | 显示全部楼层
强烈支持楼主ing……
回复 支持 反对

使用道具 举报

蓝光币
33
发表于 2018-9-10 11:21:58 | 显示全部楼层
等很久了 谢谢~!
回复 支持 反对

使用道具 举报

蓝光币
821
发表于 2018-9-10 18:54:59 | 显示全部楼层
强烈支持楼主ing……
回复 支持 反对

使用道具 举报

蓝光币
1328
发表于 2018-9-10 20:06:37 | 显示全部楼层
看到这帖子真是高兴!:):)
回复 支持 反对

使用道具 举报

蓝光币
325
发表于 2018-9-11 07:56:21 | 显示全部楼层
强烈支持楼主ing……
回复 支持 反对

使用道具 举报

蓝光币
623
发表于 2018-9-14 15:16:00 | 显示全部楼层 |阅读模式
侏罗纪天下2/侏罗纪天下:殒落国家 Jurassic.World.Fallen.Kingdom.2018.2160p.BluRay.x264.8bit.SDR.DTS-X.7.1-SWTYBLZ 18.46GB-1.jpg
◎译  名 侏罗纪天下2/侏罗纪天下:殒落国家(台)/侏罗纪天下:丢失国家(港)/侏罗纪天下2:失落王国/侏罗纪天下2:出错王国/侏罗纪公园5
◎片  名 Jurassic World: Fallen Kingdom
◎年  代 2018
◎产  地 美国/西班牙
◎类  别 行动/科幻/冒险
◎语  言 英语
◎上映日期 2018-06-15(中国大陆)/2018-06-22(美国)
◎豆瓣评分 6.8/10 from 189,789 users
◎豆瓣链接 https://movie.douban.com/subject/26416062/
◎片  长 128分钟
◎导  演 胡安·安东尼奥·巴亚纳 Juan Antonio Bayona
◎主  演 克里斯·帕拉特 Chris Pratt
      布莱丝·达拉斯·霍华德 Bryce Dallas Howard
      贾斯蒂斯·史姑娘 Justice Smith
      伊莎贝拉·瑟蒙 1394999
      拉菲·斯波 Rafe Spall
      托比·琼斯 Toby Jones
      泰德·拉文 Ted Levine
      詹姆斯·克伦威尔 James Cromwell
      黄荣亮 B.D. Wong
      丹妮艾拉·皮内达 Daniella Pineda
      杰拉丁·卓别林 Geraldine Chaplin
      杰夫·高布伦 Jeff Goldblum
      卡米尔·雷米泽斯基 Kamil Lemieszewski
      丹尼尔·斯蒂森 Daniel Stisen
      皮特·杰森 Peter Jason
      迈克尔·帕帕约翰 Michael Papajohn
      罗伯特·埃姆斯 Robert Emms
      罗南·萨莫尔斯 Ronan Summers
      麦克斯·贝克 Max Baker
      丹尼尔·厄根 Daniel Eghan
      戴维·奥拉瓦莱·阿印德 David Olawale Ayinde

◎简  介

  自侏罗纪天下的骚乱以来,品种繁多的恐龙在努布拉岛度过了三年自在自在的时光。但是该岛火山活动频仍,随时有喷发的危险。努力于恐龙庇护的克莱尔·戴宁(布莱丝·达拉斯·霍华德 Bryce Dallas Howard 饰)遭到班杰明?洛克伍德的约请。班杰明及其部属伊莱·米尔斯(拉菲·斯波 Rafe Spall 饰)希望她和相关技术职员前往努布拉岛拯救那边的恐龙,并将它们安置在新的栖息地。遭到传染的克莱尔想法找来欧文(克里斯·帕拉特 Chris Pratt 饰)一同前往,欧文则希望救出他亲手驯养的迅猛龙小蓝。当他们踏足这座隔断之岛时,却发现工作没那末简单。
  火山捋臂张拳,随时爆发,而紊乱当中丑陋的诡计悄悄酝酿……

  1. Video
  2. ID                                       : 1
  3. Format                                   : AVC
  4. Format/Info                              : Advanced Video Codec
  5. Format profile                           : [url=/cdn-cgi/l/email-protection][email protected][/url]
  6. Format settings                          : CABAC / 5 Ref Frames
  7. Format settings, CABAC                   : Yes
  8. Format settings, RefFrames               : 5 frames
  9. Codec ID                                 : V_MPEG4/ISO/AVC
  10. Duration                                 : 2 h 8 min
  11. Bit rate                                 : 15.6 Mb/s
  12. Width                                    : 3 840 pixels
  13. Height                                   : 1 606 pixels
  14. Display aspect ratio                     : 2.40:1
  15. Frame rate mode                          : Constant
  16. Frame rate                               : 23.976 (24000/1001) FPS
  17. Color space                              : YUV
  18. Chroma subsampling                       : 4:2:0
  19. Bit depth                                : 8 bits
  20. Scan type                                : Progressive
  21. Bits/(Pixel*Frame)                       : 0.106
  22. Stream size                              : 14.0 GiB (76%)
  23. Title                                    : Jurassic.World.Fallen.Kingdom.2018.2160p.BluRay.x264.8bit.SDR.DTS-X.7.1-SWTYBLZ
  24. Writing library                          : x264 core 155 r2901 7d0ff22
  25. Encoding settings                        : cabac=1 / ref=5 / deblock=1:-1:-1 / analyse=0x3:0x113 / me=umh / subme=10 / psy=1 / psy_rd=1.00:0.15 / mixed_ref=1 / me_range=48 / chroma_me=1 / trellis=2 / 8x8dct=1 / cqm=0 / deadzone=21,11 / fast_pskip=1 / chroma_qp_offset=-3 / threads=36 / lookahead_threads=3 / sliced_threads=0 / nr=0 / decimate=0 / interlaced=0 / bluray_compat=0 / constrained_intra=0 / bframes=3 / b_pyramid=2 / b_adapt=2 / b_bias=0 / direct=3 / weightb=1 / open_gop=0 / weightp=2 / keyint=250 / keyint_min=23 / scenecut=40 / intra_refresh=0 / rc_lookahead=50 / rc=crf / mbtree=1 / crf=18.0 / qcomp=0.60 / qpmin=0 / qpmax=69 / qpstep=4 / ip_ratio=1.40 / aq=1:1.00
  26. Language                                 : English
  27. Default                                  : Yes
  28. Forced                                   : No

  29. Audio #1
  30. ID                                       : 2
  31. Format                                   : DTS
  32. Format/Info                              : Digital Theater Systems
  33. Format profile                           : X / MA / Core
  34. Codec ID                                 : A_DTS
  35. Duration                                 : 2 h 8 min
  36. Bit rate mode                            : Variable / Variable / Constant
  37. Bit rate                                 : 4 231 kb/s / 4 231 kb/s / 1 509 kb/s
  38. Channel(s)                               : Object Based / 8 channels / 6 channels
  39. Channel positions                        : Object Based / Front: L C R, Side: L R, Back: L R, LFE / Front: L C R, Side: L R, LFE
  40. Sampling rate                            :  / 48.0 kHz / 48.0 kHz
  41. Frame rate                               : 93.750 FPS (512 SPF)
  42. Bit depth                                :  / 24 bits / 24 bits
  43. Compression mode                         :  / Lossless / Lossy
  44. Stream size                              : 3.79 GiB (21%)
  45. Title                                    : Jurassic.World.Fallen.Kingdom.2018.2160p.BluRay.x264.8bit.SDR.DTS-X.7.1-SWTYBLZ
  46. Language                                 : English
  47. Default                                  : Yes
  48. Forced                                   : No

  49. Audio #2
  50. ID                                       : 3
  51. Format                                   : AC-3
  52. Format/Info                              : Audio Coding 3
  53. Codec ID                                 : A_AC3
  54. Duration                                 : 2 h 8 min
  55. Bit rate mode                            : Constant
  56. Bit rate                                 : 640 kb/s
  57. Channel(s)                               : 6 channels
  58. Channel positions                        : Front: L C R, Side: L R, LFE
  59. Sampling rate                            : 48.0 kHz
  60. Frame rate                               : 31.250 FPS (1536 SPF)
  61. Bit depth                                : 16 bits
  62. Compression mode                         : Lossy
  63. Stream size                              : 587 MiB (3%)
  64. Title                                    : Jurassic.World.Fallen.Kingdom.2018.2160p.BluRay.x264.8bit.SDR.DTS-X.7.1-SWTYBLZ
  65. Language                                 : English
  66. Service kind                             : Complete Main
  67. Default                                  : No
  68. Forced                                   : No

  69. Text #1
  70. ID                                       : 4
  71. Format                                   : UTF-8
  72. Codec ID                                 : S_TEXT/UTF8
  73. Codec ID/Info                            : UTF-8 Plain Text
  74. Duration                                 : 1 h 55 min
  75. Bit rate                                 : 43 b/s
  76. Count of elements                        : 1379
  77. Stream size                              : 37.2 KiB (0%)
  78. Title                                    : English-SRT
  79. Language                                 : English
  80. Default                                  : Yes
  81. Forced                                   : No

  82. Text #2
  83. ID                                       : 5
  84. Format                                   : PGS
  85. Muxing mode                              : zlib
  86. Codec ID                                 : S_HDMV/PGS
  87. Codec ID/Info                            : Picture based subtitle format used on BDs/HD-DVDs
  88. Duration                                 : 2 h 7 min
  89. Bit rate                                 : 34.7 kb/s
  90. Count of elements                        : 3540
  91. Stream size                              : 31.5 MiB (0%)
  92. Title                                    : Engish-PGS
  93. Language                                 : English
  94. Default                                  : No
  95. Forced                                   : No

  96. Text #3
  97. ID                                       : 6
  98. Format                                   : PGS
  99. Muxing mode                              : zlib
  100. Codec ID                                 : S_HDMV/PGS
  101. Codec ID/Info                            : Picture based subtitle format used on BDs/HD-DVDs
  102. Duration                                 : 2 h 6 min
  103. Bit rate                                 : 25.1 kb/s
  104. Count of elements                        : 2590
  105. Stream size                              : 22.7 MiB (0%)
  106. Title                                    : Spanish-PGS
  107. Language                                 : Spanish
  108. Default                                  : No
  109. Forced                                   : No

  110. Text #4
  111. ID                                       : 7
  112. Format                                   : PGS
  113. Muxing mode                              : zlib
  114. Codec ID                                 : S_HDMV/PGS
  115. Codec ID/Info                            : Picture based subtitle format used on BDs/HD-DVDs
  116. Duration                                 : 2 h 6 min
  117. Bit rate                                 : 23.6 kb/s
  118. Count of elements                        : 2592
  119. Stream size                              : 21.4 MiB (0%)
  120. Title                                    : French-PGS
  121. Language                                 : French
  122. Default                                  : No
  123. Forced                                   : No

  124. Menu
  125. 00:00:00.000                             : :Chapter 1
  126. 00:07:13.224                             : :Chapter 2
  127. 00:12:01.554                             : :Chapter 3
  128. 00:17:17.745                             : :Chapter 4
  129. 00:21:17.192                             : :Chapter 5
  130. 00:28:49.811                             : :Chapter 6
  131. 00:35:04.685                             : :Chapter 7
  132. 00:40:51.574                             : :Chapter 8
  133. 00:46:32.498                             : :Chapter 9
  134. 00:52:04.996                             : :Chapter 10
  135. 01:00:59.197                             : :Chapter 11
  136. 01:06:50.256                             : :Chapter 12
  137. 01:11:07.638                             : :Chapter 13
  138. 01:17:21.094                             : :Chapter 14
  139. 01:26:55.210                             : :Chapter 15
  140. 01:33:01.492                             : :Chapter 16
  141. 01:42:55.878                             : :Chapter 17
  142. 01:50:01.553                             : :Chapter 18
  143. 01:54:56.222                             : :Chapter 19
  144. 01:58:37.985                             : :Chapter 20
复制代码

复制代码

侏罗纪天下2/侏罗纪天下:殒落国家 Jurassic.World.Fallen.Kingdom.2018.2160p.BluRay.x264.8bit.SDR.DTS-X.7.1-SWTYBLZ 18.46GB-2.png 侏罗纪天下2/侏罗纪天下:殒落国家 Jurassic.World.Fallen.Kingdom.2018.2160p.BluRay.x264.8bit.SDR.DTS-X.7.1-SWTYBLZ 18.46GB-3.png 侏罗纪天下2/侏罗纪天下:殒落国家 Jurassic.World.Fallen.Kingdom.2018.2160p.BluRay.x264.8bit.SDR.DTS-X.7.1-SWTYBLZ 18.46GB-4.png 侏罗纪天下2/侏罗纪天下:殒落国家 Jurassic.World.Fallen.Kingdom.2018.2160p.BluRay.x264.8bit.SDR.DTS-X.7.1-SWTYBLZ 18.46GB-5.png 侏罗纪天下2/侏罗纪天下:殒落国家 Jurassic.World.Fallen.Kingdom.2018.2160p.BluRay.x264.8bit.SDR.DTS-X.7.1-SWTYBLZ 18.46GB-6.png 侏罗纪天下2/侏罗纪天下:殒落国家 Jurassic.World.Fallen.Kingdom.2018.2160p.BluRay.x264.8bit.SDR.DTS-X.7.1-SWTYBLZ 18.46GB-7.png 侏罗纪天下2/侏罗纪天下:殒落国家 Jurassic.World.Fallen.Kingdom.2018.2160p.BluRay.x264.8bit.SDR.DTS-X.7.1-SWTYBLZ 18.46GB-8.png






回复

使用道具 举报

蓝光币
141
发表于 2018-9-14 16:08:40 | 显示全部楼层
都这么多天了,怎么还仅限VIP下载?
回复 支持 反对

使用道具 举报

蓝光币
821
发表于 2018-9-14 22:54:08 | 显示全部楼层
强烈支持楼主ing……
回复 支持 反对

使用道具 举报

蓝光币
1138
发表于 2018-9-15 06:07:47 | 显示全部楼层
强烈支持楼主ing……
回复 支持 反对

使用道具 举报

懒得打字嘛,点击右侧快捷回复 【右侧内容,后台自定义】
您需要登录后才可以回帖 登录 | 立即加入

本版积分规则

Archiver|小黑屋| 蓝光电影网 |网站地图

Copyright © 2021 Comsenz Inc. Powered by 蓝光电影网

蓝光电影网

本站内容由用户自主分享和转载自互联网,转载目的在于传递更多信息,并不代表本网赞同其观点和对其真实性负责。

如有侵权、违反国家法律政策行为,请联系我们,我们会第一时间及时清除和处理!

举报反馈邮箱:[email protected]

快速回复 返回顶部 返回列表