找回密码

蓝光电影网

查看: 643|回复: 0

[剧情] 半个尼尔森/我的左派老师 Half.Nelson.2006.1080p.BluRay.REMUX.AVC.DTS-HD.MA.5.1-FGT 24.67GB

[复制链接]
蓝光币
623
发表于 2018-9-9 23:21:00 | 显示全部楼层 |阅读模式

半个尼尔森/我的右派教员 Half.Nelson.2006.1080p.BluRay.REMUX.AVC.DTS-HD.MA.5.1-FGT 24.67GB-1.jpg
◎译  名 半个尼尔森/我的右派教员/我的毒虫教员/单臂扼颈
◎片  名 Half Nelson
◎年  代 2006
◎产  地 美国
◎类  别 剧情
◎语  言 英语
◎上映日期 2006-08-11
◎豆瓣评分 7.6/10 from 5,444 users
◎豆瓣链接 https://movie.douban.com/subject/1850942/
◎片  长 USA: 106 分钟(Sundance Film Festival)
◎导  演 瑞安·弗雷克 Ryan Fleck
◎主  演 瑞恩·高斯林 Ryan Gosling
      安东尼·麦凯 Anthony Mackie
      莎莉卡·艾普斯 Shareeka Epps
      Jeff Lima
      Nathan Corbett

◎简  介

  白人历史教师丹?邓恩(瑞恩?高斯林 饰),在纽约布鲁克林一家陈旧的公立中学教书,他的门生多是黑人。丹有豪情和缔造力,酷爱门生,不遵守官方讲授纲领,相信黑格尔辩证法,以为历史本质由相反力感化而成。他使得纸页间死板的历史活泼新鲜,激励门生思考和分析历史,及自己周遍天下的运作法例,学天生为丹存活于社会的救生索。早晨,他是不成救药的瘾君子。
  这类割裂的生活没有能延续多久,丹某次在空无一人的女更衣室吸毒而虚脱,被他的黑人女门生德丽(莎莉卡?艾普斯 饰)发现。配合守旧的阴晦奥秘,拉近了他们的关系,也改变了各自的生活。

◎获奖情况

  第79届奥斯卡金像奖  (2007)
  最好男配角(提名) 瑞恩·高斯林

  第59届洛迦诺国际电影节  (2006)
  金豹奖(提名) 瑞安·弗雷克
  评审团出格奖 Alex Orlovsky / Lynette Howell / Rosanne Korenberg / 安娜·波顿 / 瑞安·弗雷克 / Jamie Patricof

  第7届美国电影学会奖  (2006)
  年度佳片

  1. Video
  2. ID                                       : 1
  3. Format                                   : AVC
  4. Format/Info                              : Advanced Video Codec
  5. Format profile                           : [url=/cdn-cgi/l/email-protection][email protected][/url]
  6. Format settings                          : CABAC / 4 Ref Frames
  7. Format settings, CABAC                   : Yes
  8. Format settings, ReFrames                : 4 frames
  9. Codec ID                                 : V_MPEG4/ISO/AVC
  10. Duration                                 : 1 h 47 min
  11. Bit rate mode                            : Variable
  12. Bit rate                                 : 29.5 Mb/s
  13. Maximum bit rate                         : 36.0 Mb/s
  14. Width                                    : 1 920 pixels
  15. Height                                   : 1 080 pixels
  16. Display aspect ratio                     : 16:9
  17. Frame rate mode                          : Constant
  18. Frame rate                               : 23.976 (24000/1001) FPS
  19. Standard                                 : NTSC
  20. Color space                              : YUV
  21. Chroma subsampling                       : 4:2:0
  22. Bit depth                                : 8 bits
  23. Scan type                                : Progressive
  24. Bits/(Pixel*Frame)                       : 0.593
  25. Stream size                              : 22.0 GiB (89%)
  26. Title                                    : Half.Nelson.2006.1080p.BluRay.REMUX.AVC.DTS-HD.MA.5.1-FGT
  27. Language                                 : English
  28. Default                                  : No
  29. Forced                                   : No
  30. Color range                              : Limited
  31. Color primaries                          : BT.709
  32. Transfer characteristics                 : BT.709
  33. Matrix coefficients                      : BT.709

  34. Audio #1
  35. ID                                       : 2
  36. Format                                   : DTS
  37. Format/Info                              : Digital Theater Systems
  38. Format profile                           : MA / Core
  39. Codec ID                                 : A_DTS
  40. Duration                                 : 1 h 47 min
  41. Bit rate mode                            : Variable / Constant
  42. Bit rate                                 : 2 005 kb/s / 1 509 kb/s
  43. Channel(s)                               : 6 channels
  44. Channel positions                        : Front: L C R, Side: L R, LFE
  45. Sampling rate                            : 48.0 kHz
  46. Frame rate                               : 93.750 FPS (512 SPF)
  47. Bit depth                                : 24 bits
  48. Compression mode                         : Lossless / Lossy
  49. Stream size                              : 1.50 GiB (6%)
  50. Title                                    : Half.Nelson.2006.1080p.BluRay.REMUX.AVC.DTS-HD.MA.5.1-FGT
  51. Language                                 : English
  52. Default                                  : Yes
  53. Forced                                   : No

  54. Audio #2
  55. ID                                       : 3
  56. Format                                   : DTS
  57. Format/Info                              : Digital Theater Systems
  58. Codec ID                                 : A_DTS
  59. Duration                                 : 1 h 47 min
  60. Bit rate mode                            : Constant
  61. Bit rate                                 : 1 509 kb/s
  62. Channel(s)                               : 6 channels
  63. Channel positions                        : Front: L C R, Side: L R, LFE
  64. Sampling rate                            : 48.0 kHz
  65. Frame rate                               : 93.750 FPS (512 SPF)
  66. Bit depth                                : 24 bits
  67. Compression mode                         : Lossy
  68. Stream size                              : 1.13 GiB (5%)
  69. Title                                    : Surround 5.1
  70. Language                                 : English
  71. Default                                  : No
  72. Forced                                   : No

  73. Menu
  74. 00:00:00.000                             : en:Chapter 01
  75. 00:09:30.653                             : en:Chapter 02
  76. 00:19:52.065                             : en:Chapter 03
  77. 00:29:22.051                             : en:Chapter 04
  78. 00:39:48.844                             : en:Chapter 05
  79. 00:50:41.580                             : en:Chapter 06
  80. 01:00:33.254                             : en:Chapter 07
  81. 01:08:42.868                             : en:Chapter 08
  82. 01:18:49.558                             : en:Chapter 09
  83. 01:23:16.574                             : en:Chapter 10
  84. 01:32:21.452                             : en:Chapter 11
  85. 01:40:56.592                             : en:Chapter 12
复制代码

复制代码

半个尼尔森/我的右派教员 Half.Nelson.2006.1080p.BluRay.REMUX.AVC.DTS-HD.MA.5.1-FGT 24.67GB-2.png 半个尼尔森/我的右派教员 Half.Nelson.2006.1080p.BluRay.REMUX.AVC.DTS-HD.MA.5.1-FGT 24.67GB-3.png 半个尼尔森/我的右派教员 Half.Nelson.2006.1080p.BluRay.REMUX.AVC.DTS-HD.MA.5.1-FGT 24.67GB-4.png




回复

使用道具 举报

懒得打字嘛,点击右侧快捷回复 【右侧内容,后台自定义】
您需要登录后才可以回帖 登录 | 立即加入

本版积分规则

Archiver|小黑屋| 蓝光电影网 |网站地图

Copyright © 2021 Comsenz Inc. Powered by 蓝光电影网

蓝光电影网

本站内容由用户自主分享和转载自互联网,转载目的在于传递更多信息,并不代表本网赞同其观点和对其真实性负责。

如有侵权、违反国家法律政策行为,请联系我们,我们会第一时间及时清除和处理!

举报反馈邮箱:[email protected]

快速回复 返回顶部 返回列表