找回密码

蓝光电影网

查看: 494|回复: 0

[喜剧] 男孩们在哪里/海滩春光 Where.the.Boys.Are.1960.1080p.BluRay.REMUX.AVC.DTS-HD.MA.2.0-FGT 29.13GB

[复制链接]
蓝光币
623
发表于 2018-9-9 23:21:40 | 显示全部楼层 |阅读模式

男孩们在那里/海滩春景 Where.the.Boys.Are.1960.1080p.BluRay.REMUX.AVC.DTS-HD.MA.2.0-FGT 29.13GB-1.jpg
◎译  名 男孩们在那里/海滩春景(港)
◎片  名 Where the Boys Are
◎年  代 1960
◎产  地 美国
◎类  别 笑剧/剧情/恋爱
◎语  言 英语
◎上映日期 1960-12-28
◎豆瓣评分 /10 from 0 users
◎豆瓣链接 https://movie.douban.com/subject/3647732/
◎片  长 99 分钟
◎导  演 Henry Levin
◎主  演 George Hamilton
      Dolores Hart
      Yvette Mimieux
      Jim Hutton

◎简  介

  Four very different college girls drive to Fort Lauderdale, Florida for spring break and seek out various adventures and romance for themselves.

  1. Video
  2. ID                                       : 1
  3. Format                                   : AVC
  4. Format/Info                              : Advanced Video Codec
  5. Format profile                           : [url=/cdn-cgi/l/email-protection][email protected][/url]
  6. Format settings                          : CABAC / 4 Ref Frames
  7. Format settings, CABAC                   : Yes
  8. Format settings, ReFrames                : 4 frames
  9. Codec ID                                 : V_MPEG4/ISO/AVC
  10. Duration                                 : 1 h 39 min
  11. Bit rate mode                            : Variable
  12. Bit rate                                 : 34.9 Mb/s
  13. Maximum bit rate                         : 38.0 Mb/s
  14. Width                                    : 1 920 pixels
  15. Height                                   : 1 080 pixels
  16. Display aspect ratio                     : 16:9
  17. Frame rate mode                          : Constant
  18. Frame rate                               : 23.976 (24000/1001) FPS
  19. Color space                              : YUV
  20. Chroma subsampling                       : 4:2:0
  21. Bit depth                                : 8 bits
  22. Scan type                                : Progressive
  23. Bits/(Pixel*Frame)                       : 0.702
  24. Stream size                              : 24.2 GiB (83%)
  25. Title                                    : Where.the.Boys.Are.1960.1080p.BluRay.REMUX.AVC.DTS-HD.MA.2.0-FGT
  26. Language                                 : English
  27. Default                                  : No
  28. Forced                                   : No

  29. Audio #1
  30. ID                                       : 2
  31. Format                                   : DTS
  32. Format/Info                              : Digital Theater Systems
  33. Format profile                           : MA / Core
  34. Codec ID                                 : A_DTS
  35. Duration                                 : 1 h 39 min
  36. Bit rate mode                            : Variable / Constant
  37. Bit rate                                 : 1 994 kb/s / 1 509 kb/s
  38. Channel(s)                               : 2 channels
  39. Channel positions                        : Front: L R
  40. Sampling rate                            : 48.0 kHz
  41. Frame rate                               : 93.750 FPS (512 SPF)
  42. Bit depth                                : 24 bits
  43. Compression mode                         : Lossless / Lossy
  44. Stream size                              : 1.38 GiB (5%)
  45. Title                                    : Where.the.Boys.Are.1960.1080p.BluRay.REMUX.AVC.DTS-HD.MA.2.0-FGT
  46. Language                                 : English
  47. Default                                  : Yes
  48. Forced                                   : No

  49. Audio #2
  50. ID                                       : 3
  51. Format                                   : DTS
  52. Format/Info                              : Digital Theater Systems
  53. Codec ID                                 : A_DTS
  54. Duration                                 : 1 h 39 min
  55. Bit rate mode                            : Constant
  56. Bit rate                                 : 1 509 kb/s
  57. Channel(s)                               : 2 channels
  58. Channel positions                        : Front: L R
  59. Sampling rate                            : 48.0 kHz
  60. Frame rate                               : 93.750 FPS (512 SPF)
  61. Bit depth                                : 24 bits
  62. Compression mode                         : Lossy
  63. Stream size                              : 1.05 GiB (4%)
  64. Title                                    : Where.the.Boys.Are.1960.1080p.BluRay.REMUX.AVC.DTS-HD.MA.2.0-FGT
  65. Language                                 : English
  66. Default                                  : No
  67. Forced                                   : No

  68. Audio #3
  69. ID                                       : 4
  70. Format                                   : DTS
  71. Format/Info                              : Digital Theater Systems
  72. Format profile                           : MA / Core
  73. Codec ID                                 : A_DTS
  74. Duration                                 : 1 h 39 min
  75. Bit rate mode                            : Variable / Constant
  76. Bit rate                                 : 2 048 kb/s / 1 509 kb/s
  77. Channel(s)                               : 2 channels
  78. Channel positions                        : Front: L R
  79. Sampling rate                            : 48.0 kHz
  80. Frame rate                               : 93.750 FPS (512 SPF)
  81. Bit depth                                : 24 bits
  82. Compression mode                         : Lossless / Lossy
  83. Stream size                              : 1.42 GiB (5%)
  84. Title                                    : Where.the.Boys.Are.1960.1080p.BluRay.REMUX.AVC.DTS-HD.MA.2.0-FGT
  85. Language                                 : English
  86. Default                                  : No
  87. Forced                                   : No

  88. Audio #4
  89. ID                                       : 5
  90. Format                                   : DTS
  91. Format/Info                              : Digital Theater Systems
  92. Codec ID                                 : A_DTS
  93. Duration                                 : 1 h 39 min
  94. Bit rate mode                            : Constant
  95. Bit rate                                 : 1 509 kb/s
  96. Channel(s)                               : 2 channels
  97. Channel positions                        : Front: L R
  98. Sampling rate                            : 48.0 kHz
  99. Frame rate                               : 93.750 FPS (512 SPF)
  100. Bit depth                                : 24 bits
  101. Compression mode                         : Lossy
  102. Stream size                              : 1.05 GiB (4%)
  103. Title                                    : Where.the.Boys.Are.1960.1080p.BluRay.REMUX.AVC.DTS-HD.MA.2.0-FGT
  104. Language                                 : English
  105. Default                                  : No
  106. Forced                                   : No

  107. Text
  108. ID                                       : 6
  109. Format                                   : PGS
  110. Muxing mode                              : zlib
  111. Codec ID                                 : S_HDMV/PGS
  112. Codec ID/Info                            : Picture based subtitle format used on BDs/HD-DVDs
  113. Duration                                 : 1 h 38 min
  114. Bit rate                                 : 91.7 kb/s
  115. Count of elements                        : 3543
  116. Stream size                              : 64.9 MiB (0%)
  117. Title                                    : English-PGS
  118. Language                                 : English
  119. Default                                  : Yes
  120. Forced                                   : No

  121. Menu
  122. 00:00:00.000                             : en:Chapter 01
  123. 00:01:27.212                             : en:Chapter 02
  124. 00:03:01.222                             : en:Chapter 03
  125. 00:05:11.519                             : en:Chapter 04
  126. 00:10:20.578                             : en:Chapter 05
  127. 00:15:00.024                             : en:Chapter 06
  128. 00:18:51.505                             : en:Chapter 07
  129. 00:23:29.408                             : en:Chapter 08
  130. 00:26:50.775                             : en:Chapter 09
  131. 00:29:46.034                             : en:Chapter 10
  132. 00:33:02.647                             : en:Chapter 11
  133. 00:36:12.920                             : en:Chapter 12
  134. 00:39:22.526                             : en:Chapter 13
  135. 00:45:19.299                             : en:Chapter 14
  136. 00:49:12.532                             : en:Chapter 15
  137. 00:54:54.207                             : en:Chapter 16
  138. 00:59:18.346                             : en:Chapter 17
  139. 00:59:31.526                             : en:Chapter 18
  140. 01:01:40.196                             : en:Chapter 19
  141. 01:04:21.107                             : en:Chapter 20
  142. 01:06:39.120                             : en:Chapter 21
  143. 01:10:05.326                             : en:Chapter 22
  144. 01:12:02.568                             : en:Chapter 23
  145. 01:16:10.774                             : en:Chapter 24
  146. 01:17:39.696                             : en:Chapter 25
  147. 01:19:03.530                             : en:Chapter 26
  148. 01:22:50.256                             : en:Chapter 27
  149. 01:26:36.065                             : en:Chapter 28
  150. 01:28:27.302                             : en:Chapter 29
  151. 01:30:48.651                             : en:Chapter 30
  152. 01:33:08.666                             : en:Chapter 31
  153. 01:37:44.024                             : en:Chapter 32
  154. 01:39:15.240                             : en:Chapter 33
复制代码

复制代码

男孩们在那里/海滩春景 Where.the.Boys.Are.1960.1080p.BluRay.REMUX.AVC.DTS-HD.MA.2.0-FGT 29.13GB-2.png 男孩们在那里/海滩春景 Where.the.Boys.Are.1960.1080p.BluRay.REMUX.AVC.DTS-HD.MA.2.0-FGT 29.13GB-3.png 男孩们在那里/海滩春景 Where.the.Boys.Are.1960.1080p.BluRay.REMUX.AVC.DTS-HD.MA.2.0-FGT 29.13GB-4.png




回复

使用道具 举报

懒得打字嘛,点击右侧快捷回复 【右侧内容,后台自定义】
您需要登录后才可以回帖 登录 | 立即加入

本版积分规则

Archiver|小黑屋| 蓝光电影网 |网站地图

Copyright © 2021 Comsenz Inc. Powered by 蓝光电影网

蓝光电影网

本站内容由用户自主分享和转载自互联网,转载目的在于传递更多信息,并不代表本网赞同其观点和对其真实性负责。

如有侵权、违反国家法律政策行为,请联系我们,我们会第一时间及时清除和处理!

举报反馈邮箱:[email protected]

快速回复 返回顶部 返回列表