找回密码

蓝光电影网

查看: 741|回复: 0

[纪录] 园丁 The.Gardener.2012.PERSIAN.1080p.BluRay.REMUX.AVC.LPCM.2.0-FGT 22.67GB

[复制链接]
蓝光币
623
发表于 2018-9-9 23:23:32 | 显示全部楼层 |阅读模式

园丁 The.Gardener.2012.PERSIAN.1080p.BluRay.REMUX.AVC.LPCM.2.0-FGT 22.67GB-1.jpg
◎译  名 园丁
◎片  名 ??????
◎年  代 2012
◎产  地 以色列/伊朗/英国
◎类  别 记载片
◎语  言 英语/波斯语/托克皮辛语
◎上映日期 2012-10-08(韩国釜山国际电影节)
◎豆瓣评分 /10 from 0 users
◎豆瓣链接 https://movie.douban.com/subject/19899629/
◎片  长 87分钟
◎导  演 莫森·玛克玛尔巴夫 Mohsen Makhmalbaf

◎简  介

  An Iranian filmmaker and his son travel to Israel to investigate a religion that originated a hundred and seventy years ago. Youth from all over come to Haifa to join this religion, and those who serve in the gardens that surround the holy places develop peace-loving attitudes through their interactions with nature.
  The filmmaker shares with his son the idea that if the Iranian people had adopted a peaceful religion, Iran would not be preparing a nuclear attack on Israel, but the son believes that all religions tend to bring about destruction. As a result of these arguments, father and son separate from one another and pursue their own paths.

  1. Video
  2. ID                                       : 1
  3. Format                                   : AVC
  4. Format/Info                              : Advanced Video Codec
  5. Format profile                           : [url=/cdn-cgi/l/email-protection][email protected][/url]
  6. Format settings                          : CABAC / 3 Ref Frames
  7. Format settings, CABAC                   : Yes
  8. Format settings, ReFrames                : 3 frames
  9. Codec ID                                 : V_MPEG4/ISO/AVC
  10. Duration                                 : 1 h 25 min
  11. Bit rate mode                            : Variable
  12. Bit rate                                 : 35.5 Mb/s
  13. Maximum bit rate                         : 38.0 Mb/s
  14. Width                                    : 1 920 pixels
  15. Height                                   : 1 080 pixels
  16. Display aspect ratio                     : 16:9
  17. Frame rate mode                          : Constant
  18. Frame rate                               : 23.976 (24000/1001) FPS
  19. Color space                              : YUV
  20. Chroma subsampling                       : 4:2:0
  21. Bit depth                                : 8 bits
  22. Scan type                                : Progressive
  23. Bits/(Pixel*Frame)                       : 0.713
  24. Stream size                              : 21.3 GiB (94%)
  25. Title                                    : The.Gardener.2012.PERSIAN.1080p.BluRay.REMUX.AVC.LPCM.2.0-FGT
  26. Language                                 : English
  27. Default                                  : No
  28. Forced                                   : No
  29. Color range                              : Limited
  30. Color primaries                          : BT.709
  31. Transfer characteristics                 : BT.709
  32. Matrix coefficients                      : BT.709

  33. Audio
  34. ID                                       : 2
  35. Format                                   : PCM
  36. Format settings                          : Little / Signed
  37. Codec ID                                 : A_PCM/INT/LIT
  38. Duration                                 : 1 h 25 min
  39. Bit rate mode                            : Constant
  40. Bit rate                                 : 2 304 kb/s
  41. Channel(s)                               : 2 channels
  42. Sampling rate                            : 48.0 kHz
  43. Frame rate                               : 30.000 FPS (1600 SPF)
  44. Bit depth                                : 24 bits
  45. Stream size                              : 1.38 GiB (6%)
  46. Title                                    : The.Gardener.2012.PERSIAN.1080p.BluRay.REMUX.AVC.LPCM.2.0-FGT
  47. Language                                 : peo
  48. Default                                  : Yes
  49. Forced                                   : No

  50. Text
  51. ID                                       : 3
  52. Format                                   : PGS
  53. Muxing mode                              : zlib
  54. Codec ID                                 : S_HDMV/PGS
  55. Codec ID/Info                            : Picture based subtitle format used on BDs/HD-DVDs
  56. Duration                                 : 1 h 21 min
  57. Bit rate                                 : 9 468 b/s
  58. Count of elements                        : 526
  59. Stream size                              : 5.53 MiB (0%)
  60. Title                                    : English-PGS
  61. Language                                 : English
  62. Default                                  : Yes
  63. Forced                                   : Yes

  64. Menu
  65. 00:00:00.000                             : en:Chapter 01
  66. 00:08:03.232                             : en:Chapter 02
  67. 00:13:47.785                             : en:Chapter 03
  68. 00:21:33.583                             : en:Chapter 04
  69. 00:27:56.466                             : en:Chapter 05
  70. 00:36:17.425                             : en:Chapter 06
  71. 00:42:59.034                             : en:Chapter 07
  72. 00:49:59.287                             : en:Chapter 08
  73. 00:58:15.909                             : en:Chapter 09
  74. 01:04:39.083                             : en:Chapter 10
  75. 01:09:46.682                             : en:Chapter 11
  76. 01:18:10.519                             : en:Chapter 12
复制代码

复制代码

园丁 The.Gardener.2012.PERSIAN.1080p.BluRay.REMUX.AVC.LPCM.2.0-FGT 22.67GB-2.png 园丁 The.Gardener.2012.PERSIAN.1080p.BluRay.REMUX.AVC.LPCM.2.0-FGT 22.67GB-3.png 园丁 The.Gardener.2012.PERSIAN.1080p.BluRay.REMUX.AVC.LPCM.2.0-FGT 22.67GB-4.png






回复

使用道具 举报

懒得打字嘛,点击右侧快捷回复 【右侧内容,后台自定义】
您需要登录后才可以回帖 登录 | 立即加入

本版积分规则

Archiver|小黑屋| 蓝光电影网 |网站地图

Copyright © 2021 Comsenz Inc. Powered by 蓝光电影网

蓝光电影网

本站内容由用户自主分享和转载自互联网,转载目的在于传递更多信息,并不代表本网赞同其观点和对其真实性负责。

如有侵权、违反国家法律政策行为,请联系我们,我们会第一时间及时清除和处理!

举报反馈邮箱:[email protected]

快速回复 返回顶部 返回列表