找回密码

蓝光电影网

查看: 598|回复: 1

[剧情] 跨越8年的新娘/跨越八年的新娘 The.8-Year.Engagement.2017.JAPANESE.1080p.BluRay.REMUX.AVC.TrueHD.7.1-FGT 18.99GB

[复制链接]
蓝光币
623
发表于 2018-9-9 23:26:10 | 显示全部楼层 |阅读模式

跨越8年的新娘/跨越八年的新娘 The.8-Year.Engagement.2017.JAPANESE.1080p.BluRay.REMUX.AVC.TrueHD.7.1-FGT 18.99GB-1.jpg
◎译  名 跨越8年的新娘/跨越八年的新娘
◎片  名 8年越しの花嫁
◎年  代 2017
◎产  地 日本
◎类  别 剧情/恋爱
◎语  言 日语
◎上映日期 2017-12-16(日本)/2018-10(中国大陆)
◎豆瓣评分 6.8/10 from 1,430 users
◎豆瓣链接 https://movie.douban.com/subject/26929835/
◎片  长 119分钟
◎导  演 濑濑敬久 Takahisa Zeze
◎主  演 佐藤健 Takeru Sat?
      土屋太凤 Tao Tsuchiya
      北村一辉 Kazuki Kitamura
      浜野谦太 Kenta Hamano
      中村友理 Yuri Nakamura
      堀部圭亮 Keisuke Horibe
      古馆宽治 Kanji Furutachi
      杉本哲太 Tetta Sugimoto
      药师丸博子 Hiroko Yakushimaru

◎简  介

  在某修车行工作的西泽尚志(佐藤健 饰)看起来像个寡然无味的年轻人,他和其他男生加入了一次联谊,鬼使神差和联谊会上的女孩华夏麻衣(土屋太凤 饰)熟稔。麻衣快人快语,开畅阳光,僧人志构成了完善的互补。在接下来的一段时候,两人越走越近,尚志终究兴起勇气向麻衣求婚,一切看似美好。可是毫无征象,麻衣身上出现了各类希奇的症状。经诊断发现,她罹得了非常辣手的疑问杂症——抗NMDA受体脑炎。终极,麻衣堕入久长的昏迷,饱受熬煎。女孩的遭受令她的怙恃伤痛欲绝,而尚志则不离不弃,始终苦守在女友身旁,期待他醒来那一天。终究,麻衣张开了紧闭多年的双眼,可是更多的考验还等在前面……
  本片按照实在事务改编。

◎获奖情况

  第41届日本电影学院奖  (2018)
  最好男配角(提名) 佐藤健
  最好女配角(提名) 土屋太凤
  最好女配角(提名) 药师丸博子
  最好配乐(提名) 村松崇继

  1. Video
  2. ID                                       : 1
  3. Format                                   : AVC
  4. Format/Info                              : Advanced Video Codec
  5. Format profile                           : [url=/cdn-cgi/l/email-protection][email protected][/url]
  6. Format settings                          : CABAC / 4 Ref Frames
  7. Format settings, CABAC                   : Yes
  8. Format settings, ReFrames                : 4 frames
  9. Codec ID                                 : V_MPEG4/ISO/AVC
  10. Duration                                 : 1 h 59 min
  11. Bit rate mode                            : Variable
  12. Bit rate                                 : 17.0 Mb/s
  13. Maximum bit rate                         : 25.0 Mb/s
  14. Width                                    : 1 920 pixels
  15. Height                                   : 1 080 pixels
  16. Display aspect ratio                     : 16:9
  17. Frame rate mode                          : Constant
  18. Frame rate                               : 24.000 FPS
  19. Standard                                 : NTSC
  20. Color space                              : YUV
  21. Chroma subsampling                       : 4:2:0
  22. Bit depth                                : 8 bits
  23. Scan type                                : Progressive
  24. Bits/(Pixel*Frame)                       : 0.342
  25. Stream size                              : 14.2 GiB (75%)
  26. Title                                    : The.8-Year.Engagement.2017.JAPANESE.1080p.BluRay.REMUX.AVC.TrueHD.7.1-FGT
  27. Language                                 : English
  28. Default                                  : No
  29. Forced                                   : No
  30. Color range                              : Limited
  31. Color primaries                          : BT.709
  32. Transfer characteristics                 : BT.709
  33. Matrix coefficients                      : BT.709

  34. Audio #1
  35. ID                                       : 2
  36. Format                                   : TrueHD
  37. Codec ID                                 : A_TRUEHD
  38. Duration                                 : 1 h 59 min
  39. Bit rate mode                            : Variable
  40. Bit rate                                 : 3 797 kb/s
  41. Maximum bit rate                         : 5 712 kb/s
  42. Channel(s)                               : 8 channels
  43. Channel positions                        : Front: L C R, Side: L R, Back: L R, LFE
  44. Sampling rate                            : 96.0 kHz
  45. Frame rate                               : 2 400.000 FPS (40 SPF)
  46. Compression mode                         : Lossless
  47. Stream size                              : 3.17 GiB (17%)
  48. Title                                    : The.8-Year.Engagement.2017.JAPANESE.1080p.BluRay.REMUX.AVC.TrueHD.7.1-FGT
  49. Language                                 : Japanese
  50. Default                                  : Yes
  51. Forced                                   : No

  52. Audio #2
  53. ID                                       : 3
  54. Format                                   : AC-3
  55. Format/Info                              : Audio Coding 3
  56. Codec ID                                 : A_AC3
  57. Duration                                 : 1 h 59 min
  58. Bit rate mode                            : Constant
  59. Bit rate                                 : 640 kb/s
  60. Channel(s)                               : 6 channels
  61. Channel positions                        : Front: L C R, Side: L R, LFE
  62. Sampling rate                            : 48.0 kHz
  63. Frame rate                               : 31.250 FPS (1536 SPF)
  64. Bit depth                                : 16 bits
  65. Compression mode                         : Lossy
  66. Stream size                              : 547 MiB (3%)
  67. Title                                    : The.8-Year.Engagement.2017.JAPANESE.1080p.BluRay.REMUX.AVC.TrueHD.7.1-FGT
  68. Language                                 : Japanese
  69. Service kind                             : Complete Main
  70. Default                                  : No
  71. Forced                                   : No

  72. Audio #3
  73. ID                                       : 4
  74. Format                                   : E-AC-3
  75. Format/Info                              : Enhanced Audio Coding 3
  76. Codec ID                                 : A_EAC3
  77. Duration                                 : 1 h 59 min
  78. Bit rate mode                            : Constant
  79. Bit rate                                 : 500 b/s
  80. Channel(s)                               : 8 channels
  81. Channel(s)_Original                      : 6 channels
  82. Channel positions                        : Front: L C R, Side: L R, LFE
  83. Sampling rate                            : 48.0 kHz
  84. Frame rate                               : 187.500 FPS (256 SPF)
  85. Compression mode                         : Lossy
  86. Stream size                              : 657 MiB (3%)
  87. Title                                    : The.8-Year.Engagement.2017.JAPANESE.1080p.BluRay.REMUX.AVC.TrueHD.7.1-FGT
  88. Language                                 : Japanese
  89. Service kind                             : Complete Main
  90. Default                                  : No
  91. Forced                                   : No

  92. Audio #4
  93. ID                                       : 5
  94. Format                                   : AC-3
  95. Format/Info                              : Audio Coding 3
  96. Codec ID                                 : A_AC3
  97. Duration                                 : 1 h 59 min
  98. Bit rate mode                            : Constant
  99. Bit rate                                 : 448 kb/s
  100. Channel(s)                               : 6 channels
  101. Channel positions                        : Front: L C R, Side: L R, LFE
  102. Sampling rate                            : 48.0 kHz
  103. Frame rate                               : 31.250 FPS (1536 SPF)
  104. Bit depth                                : 16 bits
  105. Compression mode                         : Lossy
  106. Stream size                              : 383 MiB (2%)
  107. Title                                    : The.8-Year.Engagement.2017.JAPANESE.1080p.BluRay.REMUX.AVC.TrueHD.7.1-FGT
  108. Language                                 : Japanese
  109. Service kind                             : Complete Main
  110. Default                                  : No
  111. Forced                                   : No

  112. Text #1
  113. ID                                       : 6
  114. Format                                   : PGS
  115. Muxing mode                              : zlib
  116. Codec ID                                 : S_HDMV/PGS
  117. Codec ID/Info                            : Picture based subtitle format used on BDs/HD-DVDs
  118. Duration                                 : 1 h 58 min
  119. Bit rate                                 : 13.7 kb/s
  120. Count of elements                        : 1918
  121. Stream size                              : 11.7 MiB (0%)
  122. Title                                    : English-PGS
  123. Language                                 : English
  124. Default                                  : Yes
  125. Forced                                   : No

  126. Text #2
  127. ID                                       : 7
  128. Format                                   : PGS
  129. Muxing mode                              : zlib
  130. Codec ID                                 : S_HDMV/PGS
  131. Codec ID/Info                            : Picture based subtitle format used on BDs/HD-DVDs
  132. Duration                                 : 1 h 58 min
  133. Bit rate                                 : 12.6 kb/s
  134. Count of elements                        : 1917
  135. Stream size                              : 10.7 MiB (0%)
  136. Title                                    : Chinese-PGS
  137. Language                                 : Chinese
  138. Default                                  : No
  139. Forced                                   : No

  140. Menu
  141. 00:00:00.000                             : en:Chapter 01
  142. 00:04:29.125                             : en:Chapter 02
  143. 00:10:19.625                             : en:Chapter 03
  144. 00:15:11.958                             : en:Chapter 04
  145. 00:21:59.041                             : en:Chapter 05
  146. 00:28:28.875                             : en:Chapter 06
  147. 00:38:23.791                             : en:Chapter 07
  148. 00:43:53.958                             : en:Chapter 08
  149. 00:48:05.875                             : en:Chapter 09
  150. 00:53:11.708                             : en:Chapter 10
  151. 00:58:50.416                             : en:Chapter 11
  152. 01:06:08.416                             : en:Chapter 12
  153. 01:12:23.750                             : en:Chapter 13
  154. 01:20:15.625                             : en:Chapter 14
  155. 01:27:41.958                             : en:Chapter 15
  156. 01:36:31.208                             : en:Chapter 16
  157. 01:45:25.291                             : en:Chapter 17
  158. 01:52:56.750                             : en:Chapter 18
复制代码

复制代码

跨越8年的新娘/跨越八年的新娘 The.8-Year.Engagement.2017.JAPANESE.1080p.BluRay.REMUX.AVC.TrueHD.7.1-FGT 18.99GB-2.png 跨越8年的新娘/跨越八年的新娘 The.8-Year.Engagement.2017.JAPANESE.1080p.BluRay.REMUX.AVC.TrueHD.7.1-FGT 18.99GB-3.png 跨越8年的新娘/跨越八年的新娘 The.8-Year.Engagement.2017.JAPANESE.1080p.BluRay.REMUX.AVC.TrueHD.7.1-FGT 18.99GB-4.png






回复

使用道具 举报

懒得打字嘛,点击右侧快捷回复 【右侧内容,后台自定义】
您需要登录后才可以回帖 登录 | 立即加入

本版积分规则

Archiver|小黑屋| 蓝光电影网 |网站地图

Copyright © 2021 Comsenz Inc. Powered by 蓝光电影网

蓝光电影网

本站内容由用户自主分享和转载自互联网,转载目的在于传递更多信息,并不代表本网赞同其观点和对其真实性负责。

如有侵权、违反国家法律政策行为,请联系我们,我们会第一时间及时清除和处理!

举报反馈邮箱:[email protected]

快速回复 返回顶部 返回列表