找回密码

蓝光电影网

查看: 874|回复: 0

[传记] 洛约拉·圣·罗耀拉 Ignacio.of.Loyola.2016.1080p.BluRay.REMUX.AVC.DTS-HD.MA.5.1-FGT 15.57GB

[复制链接]
蓝光币
623
发表于 2018-9-9 23:26:54 | 显示全部楼层 |阅读模式

洛约拉·圣·罗耀拉 Ignacio.of.Loyola.2016.1080p.BluRay.REMUX.AVC.DTS-HD.MA.5.1-FGT 15.57GB-1.jpg
◎译  名 洛约拉·圣·罗耀拉
◎片  名 Ignacio de Loyola
◎年  代 2016
◎产  地 菲律宾/西班牙
◎类  别 列传/历史
◎语  言 英语
◎上映日期 2016-07-27
◎豆瓣评分 /10 from 0 users
◎豆瓣链接 https://movie.douban.com/subject/26949420/
◎片  长 118分钟
◎导  演 Paolo Dy
◎主  演 Andreas Mu?oz
      哈维尔·戈迪诺 Javier Godino
      胡里奥·佩里兰 Julio Perillán

◎简  介

  '假如你能听到天主的声音,你会想要守旧奥秘吗?'按照耶稣会开创人圣依纳爵·罗耀拉回忆录改编的历史剧。这个故事是关于一个兵士、一个布满恶习和暴力的人在尝试转向光亮的进程中,被迫与心里的恶魔抗争直到灭亡的边沿。菲律宾制片人,在西班牙和菲律宾拍摄,电影报告了他在潘普洛纳勇敢但徒劳的战役,他与沮丧和近自杀情感的斗争,在异端裁判所得审判,以及他最初的无罪宣布。——译自IMDb上的先容

  1. Video
  2. ID                                       : 1
  3. Format                                   : AVC
  4. Format/Info                              : Advanced Video Codec
  5. Format profile                           : [url=/cdn-cgi/l/email-protection][email protected][/url]
  6. Format settings                          : CABAC / 4 Ref Frames
  7. Format settings, CABAC                   : Yes
  8. Format settings, ReFrames                : 4 frames
  9. Codec ID                                 : V_MPEG4/ISO/AVC
  10. Duration                                 : 2 h 6 min
  11. Bit rate mode                            : Variable
  12. Bit rate                                 : 14.5 Mb/s
  13. Maximum bit rate                         : 30.0 Mb/s
  14. Width                                    : 1 920 pixels
  15. Height                                   : 1 080 pixels
  16. Display aspect ratio                     : 16:9
  17. Frame rate mode                          : Constant
  18. Frame rate                               : 23.976 (24000/1001) FPS
  19. Standard                                 : NTSC
  20. Color space                              : YUV
  21. Chroma subsampling                       : 4:2:0
  22. Bit depth                                : 8 bits
  23. Scan type                                : Progressive
  24. Bits/(Pixel*Frame)                       : 0.292
  25. Stream size                              : 12.8 GiB (82%)
  26. Title                                    : Ignacio.of.Loyola.2016.1080p.BluRay.REMUX.AVC.DTS-HD.MA.5.1-FGT
  27. Language                                 : English
  28. Default                                  : No
  29. Forced                                   : No
  30. Color range                              : Limited
  31. Color primaries                          : BT.709
  32. Transfer characteristics                 : BT.709
  33. Matrix coefficients                      : BT.709

  34. Audio #1
  35. ID                                       : 2
  36. Format                                   : DTS
  37. Format/Info                              : Digital Theater Systems
  38. Format profile                           : MA / Core
  39. Codec ID                                 : A_DTS
  40. Duration                                 : 2 h 6 min
  41. Bit rate mode                            : Variable / Constant
  42. Bit rate                                 : 2 048 kb/s / 1 152 kb/s
  43. Channel(s)                               : 6 channels
  44. Channel positions                        : Front: L C R, Side: L R, LFE
  45. Sampling rate                            : 48.0 kHz
  46. Frame rate                               : 93.750 FPS (512 SPF)
  47. Bit depth                                : 16 bits
  48. Compression mode                         : Lossless / Lossy
  49. Stream size                              : 1.79 GiB (11%)
  50. Title                                    : Ignacio.of.Loyola.2016.1080p.BluRay.REMUX.AVC.DTS-HD.MA.5.1-FGT
  51. Language                                 : English
  52. Default                                  : Yes
  53. Forced                                   : No

  54. Audio #2
  55. ID                                       : 3
  56. Format                                   : DTS
  57. Format/Info                              : Digital Theater Systems
  58. Codec ID                                 : A_DTS
  59. Duration                                 : 2 h 6 min
  60. Bit rate mode                            : Constant
  61. Bit rate                                 : 1 152 kb/s
  62. Channel(s)                               : 6 channels
  63. Channel positions                        : Front: L C R, Side: L R, LFE
  64. Sampling rate                            : 48.0 kHz
  65. Frame rate                               : 93.750 FPS (512 SPF)
  66. Bit depth                                : 16 bits
  67. Compression mode                         : Lossy
  68. Stream size                              : 1.01 GiB (7%)
  69. Title                                    : Ignacio.of.Loyola.2016.1080p.BluRay.REMUX.AVC.DTS-HD.MA.5.1-FGT
  70. Language                                 : English
  71. Default                                  : No
  72. Forced                                   : No

  73. Menu
  74. 00:00:00.000                             : en:Chapter 01
  75. 00:04:33.940                             : en:Chapter 02
  76. 00:14:04.677                             : en:Chapter 03
  77. 00:22:01.445                             : en:Chapter 04
  78. 00:30:51.850                             : en:Chapter 05
  79. 00:39:28.699                             : en:Chapter 06
  80. 00:47:27.511                             : en:Chapter 07
  81. 00:55:21.818                             : en:Chapter 08
  82. 01:04:41.419                             : en:Chapter 09
  83. 01:12:20.919                             : en:Chapter 10
  84. 01:18:17.651                             : en:Chapter 11
  85. 01:26:49.871                             : en:Chapter 12
  86. 01:30:11.322                             : en:Chapter 13
  87. 01:41:54.358                             : en:Chapter 14
  88. 01:51:30.183                             : en:Chapter 15
  89. 01:57:32.045                             : en:Chapter 16
复制代码

复制代码

洛约拉·圣·罗耀拉 Ignacio.of.Loyola.2016.1080p.BluRay.REMUX.AVC.DTS-HD.MA.5.1-FGT 15.57GB-2.png 洛约拉·圣·罗耀拉 Ignacio.of.Loyola.2016.1080p.BluRay.REMUX.AVC.DTS-HD.MA.5.1-FGT 15.57GB-3.png 洛约拉·圣·罗耀拉 Ignacio.of.Loyola.2016.1080p.BluRay.REMUX.AVC.DTS-HD.MA.5.1-FGT 15.57GB-4.png







回复

使用道具 举报

懒得打字嘛,点击右侧快捷回复 【右侧内容,后台自定义】
您需要登录后才可以回帖 登录 | 立即加入

本版积分规则

Archiver|小黑屋| 蓝光电影网 |网站地图

Copyright © 2021 Comsenz Inc. Powered by 蓝光电影网

蓝光电影网

本站内容由用户自主分享和转载自互联网,转载目的在于传递更多信息,并不代表本网赞同其观点和对其真实性负责。

如有侵权、违反国家法律政策行为,请联系我们,我们会第一时间及时清除和处理!

举报反馈邮箱:[email protected]

快速回复 返回顶部 返回列表