找回密码

蓝光电影网

查看: 620|回复: 0

[喜剧] 浪荡儿/维蒂洛尼 I.Vitelloni.1953.ITALIAN.1080p.BluRay.REMUX.AVC.LPCM.2.0-FGT 19.08GB

[复制链接]
蓝光币
623
发表于 2018-9-9 23:27:11 | 显示全部楼层 |阅读模式

游荡儿/维蒂洛尼 I.Vitelloni.1953.ITALIAN.1080p.BluRay.REMUX.AVC.LPCM.2.0-FGT 19.08GB-1.jpg
◎译  名 游荡儿/维蒂洛尼/流浪汉/青春群像
◎片  名 I vitelloni
◎年  代 1953
◎产  地 意大利/法国
◎类  别 笑剧/剧情
◎语  言 意大利语
◎上映日期 1953-08-26(威尼斯电影节)/1953-09-17(意大利)
◎豆瓣评分 8.5/10 from 2,629 users
◎豆瓣链接 https://movie.douban.com/subject/1300779/
◎片  长 101分钟(阿根廷)/100分钟(德国)/104分钟(美国)/107分钟(意大利)
◎导  演 费德里科·费里尼 Federico Fellini
◎主  演 弗朗科·英特朗吉 Franco Interlenghi
      阿尔伯托·索迪 Alberto Sordi
      佛朗哥·法布里齐 Franco Fabrizi
      里奥普尔多·特里斯特 Leopoldo Trieste
      Riccardo Fellini
      莉奥诺拉·罗芙 Leonora Ruffo
      让·布罗沙尔 Jean Brochard
      Claude Farell

◎简  介

  影片的仆人公是年近30岁的5位年轻人,他们整天游手好闲,热衷于恶作剧并沉溺于梦幻般不切现实的计划里。其中最年长的浮士德让最年少的摩拉德的妹妹桑德拉怀了孕,基于义务心及四周人的力劝而结了婚。浮士德在一家古玩店工作,但由于恶习不改诡计蛊惑店东的妻子而被解雇。一天,桑德拉得知浮士德带着一位舞娘到一家廉价的旅店留宿,因而第二天她带着孩子离家出走;狼狈的浮士德第一次感应桑德拉的重要性。因而和她的兄弟四人拼命寻觅桑德拉的着落,终究找到桑德拉的浮士德一边遭到父亲的痛斥;一边哀告桑德拉的谅解。见到二人重建旧好的摩拉德在越日早晨不辞而别,踏上了自己的旅程。

◎获奖情况

  第30届奥斯卡金像奖  (1958)
  最好原创剧本(提名) 图里奥·皮内利 / 恩尼奥·弗拉亚诺 / 费德里科·费里尼

  第14届威尼斯电影节  (1953)
  主比赛单元 金狮奖 (提名) 费德里科·费里尼
  银狮奖 最好影片 费德里科·费里尼

  1. Video
  2. ID                                       : 1
  3. Format                                   : AVC
  4. Format/Info                              : Advanced Video Codec
  5. Format profile                           : [url=/cdn-cgi/l/email-protection][email protected][/url]
  6. Format settings                          : CABAC / 3 Ref Frames
  7. Format settings, CABAC                   : Yes
  8. Format settings, ReFrames                : 3 frames
  9. Codec ID                                 : V_MPEG4/ISO/AVC
  10. Duration                                 : 1 h 42 min
  11. Bit rate mode                            : Variable
  12. Bit rate                                 : 25.0 Mb/s
  13. Maximum bit rate                         : 35.0 Mb/s
  14. Width                                    : 1 920 pixels
  15. Height                                   : 1 080 pixels
  16. Display aspect ratio                     : 16:9
  17. Frame rate mode                          : Constant
  18. Frame rate                               : 25.000 FPS
  19. Standard                                 : NTSC
  20. Color space                              : YUV
  21. Chroma subsampling                       : 4:2:0
  22. Bit depth                                : 8 bits
  23. Scan type                                : MBAFF
  24. Bits/(Pixel*Frame)                       : 0.482
  25. Stream size                              : 18.0 GiB (94%)
  26. Title                                    : I.Vitelloni.1953.ITALIAN.1080p.BluRay.REMUX.AVC.LPCM.2.0-FGT
  27. Language                                 : English
  28. Default                                  : No
  29. Forced                                   : No
  30. Color range                              : Limited
  31. Color primaries                          : BT.709
  32. Transfer characteristics                 : BT.709
  33. Matrix coefficients                      : BT.709

  34. Audio
  35. ID                                       : 2
  36. Format                                   : PCM
  37. Format settings                          : Little / Signed
  38. Codec ID                                 : A_PCM/INT/LIT
  39. Duration                                 : 1 h 42 min
  40. Bit rate mode                            : Constant
  41. Bit rate                                 : 1 536 kb/s
  42. Channel(s)                               : 2 channels
  43. Sampling rate                            : 48.0 kHz
  44. Frame rate                               : 30.000 FPS (1600 SPF)
  45. Bit depth                                : 16 bits
  46. Stream size                              : 1.10 GiB (6%)
  47. Title                                    : I.Vitelloni.1953.ITALIAN.1080p.BluRay.REMUX.AVC.LPCM.2.0-FGT
  48. Language                                 : Italian
  49. Default                                  : Yes
  50. Forced                                   : No

  51. Text
  52. ID                                       : 3
  53. Format                                   : PGS
  54. Muxing mode                              : zlib
  55. Codec ID                                 : S_HDMV/PGS
  56. Codec ID/Info                            : Picture based subtitle format used on BDs/HD-DVDs
  57. Duration                                 : 1 h 42 min
  58. Bit rate                                 : 33.0 kb/s
  59. Count of elements                        : 2487
  60. Stream size                              : 24.2 MiB (0%)
  61. Title                                    : English-PGS
  62. Language                                 : English
  63. Default                                  : Yes
  64. Forced                                   : Yes

  65. Menu
  66. 00:00:00.000                             : en:Chapter 01
  67. 00:08:59.600                             : en:Chapter 02
  68. 00:16:06.200                             : en:Chapter 03
  69. 00:23:55.920                             : en:Chapter 04
  70. 00:32:14.200                             : en:Chapter 05
  71. 00:41:13.400                             : en:Chapter 06
  72. 00:52:23.920                             : en:Chapter 07
  73. 00:55:12.680                             : en:Chapter 08
  74. 01:05:36.320                             : en:Chapter 09
  75. 01:11:33.200                             : en:Chapter 10
  76. 01:20:15.640                             : en:Chapter 11
  77. 01:30:48.720                             : en:Chapter 12
  78. 01:37:18.040                             : en:Chapter 13
复制代码

复制代码

游荡儿/维蒂洛尼 I.Vitelloni.1953.ITALIAN.1080p.BluRay.REMUX.AVC.LPCM.2.0-FGT 19.08GB-2.png 游荡儿/维蒂洛尼 I.Vitelloni.1953.ITALIAN.1080p.BluRay.REMUX.AVC.LPCM.2.0-FGT 19.08GB-3.png 游荡儿/维蒂洛尼 I.Vitelloni.1953.ITALIAN.1080p.BluRay.REMUX.AVC.LPCM.2.0-FGT 19.08GB-4.png






回复

使用道具 举报

懒得打字嘛,点击右侧快捷回复 【右侧内容,后台自定义】
您需要登录后才可以回帖 登录 | 立即加入

本版积分规则

Archiver|小黑屋| 蓝光电影网 |网站地图

Copyright © 2021 Comsenz Inc. Powered by 蓝光电影网

蓝光电影网

本站内容由用户自主分享和转载自互联网,转载目的在于传递更多信息,并不代表本网赞同其观点和对其真实性负责。

如有侵权、违反国家法律政策行为,请联系我们,我们会第一时间及时清除和处理!

举报反馈邮箱:[email protected]

快速回复 返回顶部 返回列表