找回密码

蓝光电影网

查看: 821|回复: 1

[纪录] 54俱乐部 Studio.54.2018.1080p.BluRay.REMUX.AVC.TrueHD.5.1-FGT 21.19GB

[复制链接]
蓝光币
623
发表于 2018-9-9 23:28:15 | 显示全部楼层 |阅读模式

54俱乐部 Studio.54.2018.1080p.BluRay.REMUX.AVC.TrueHD.5.1-FGT 21.19GB-1.jpg
◎译  名 54俱乐部
◎片  名 Studio 54
◎年  代 2018
◎产  地 美国
◎类  别 记载片
◎语  言 英语
◎上映日期 2018-01-21(美国)
◎豆瓣评分 /10 from 0 users
◎豆瓣链接 https://movie.douban.com/subject/28428471/
◎片  长 98min
◎导  演 马特·蒂瑙尔 Matt Tyrnauer
◎主  演 Steve Rubell
      Ian Schrager

◎简  介

  Studio 54 was the epicenter of 70s hedonism--a place that not only redefined the nightclub, but also came to symbolize an entire era. Its co-owners, Ian Schrager and Steve Rubell, two friends from Brooklyn, seemed to come out of nowhere to suddenly preside over a new kind of New York society. Now, 39 years after the velvet rope was first slung across the club's hallowed threshold, a feature documentary tells the real story behind the greatest club of all time. Written by Official Website

  1. Video
  2. ID                                       : 1
  3. Format                                   : AVC
  4. Format/Info                              : Advanced Video Codec
  5. Format profile                           : [url=/cdn-cgi/l/email-protection][email protected][/url]
  6. Format settings                          : CABAC / 4 Ref Frames
  7. Format settings, CABAC                   : Yes
  8. Format settings, ReFrames                : 4 frames
  9. Codec ID                                 : V_MPEG4/ISO/AVC
  10. Duration                                 : 1 h 38 min
  11. Bit rate mode                            : Variable
  12. Bit rate                                 : 25.0 Mb/s
  13. Maximum bit rate                         : 35.0 Mb/s
  14. Width                                    : 1 920 pixels
  15. Height                                   : 1 080 pixels
  16. Display aspect ratio                     : 16:9
  17. Frame rate mode                          : Constant
  18. Frame rate                               : 23.976 (24000/1001) FPS
  19. Standard                                 : NTSC
  20. Color space                              : YUV
  21. Chroma subsampling                       : 4:2:0
  22. Bit depth                                : 8 bits
  23. Scan type                                : Progressive
  24. Bits/(Pixel*Frame)                       : 0.503
  25. Stream size                              : 17.3 GiB (82%)
  26. Title                                    : Studio.54.2018.1080p.BluRay.REMUX.AVC.TrueHD.5.1-FGT
  27. Language                                 : English
  28. Default                                  : No
  29. Forced                                   : No
  30. Color range                              : Limited
  31. Color primaries                          : BT.709
  32. Transfer characteristics                 : BT.709
  33. Matrix coefficients                      : BT.709

  34. Audio #1
  35. ID                                       : 2
  36. Format                                   : TrueHD
  37. Codec ID                                 : A_TRUEHD
  38. Duration                                 : 1 h 38 min
  39. Bit rate mode                            : Variable
  40. Bit rate                                 : 2 652 kb/s
  41. Maximum bit rate                         : 4 449 kb/s
  42. Channel(s)                               : 6 channels
  43. Channel positions                        : Front: L C R, Side: L R, LFE
  44. Sampling rate                            : 48.0 kHz
  45. Frame rate                               : 1 200.000 FPS (40 SPF)
  46. Compression mode                         : Lossless
  47. Stream size                              : 1.83 GiB (9%)
  48. Title                                    : Studio.54.2018.1080p.BluRay.REMUX.AVC.TrueHD.5.1-FGT
  49. Language                                 : English
  50. Default                                  : Yes
  51. Forced                                   : No

  52. Audio #2
  53. ID                                       : 3
  54. Format                                   : AC-3
  55. Format/Info                              : Audio Coding 3
  56. Codec ID                                 : A_AC3
  57. Duration                                 : 1 h 38 min
  58. Bit rate mode                            : Constant
  59. Bit rate                                 : 640 kb/s
  60. Channel(s)                               : 6 channels
  61. Channel positions                        : Front: L C R, Side: L R, LFE
  62. Sampling rate                            : 48.0 kHz
  63. Frame rate                               : 31.250 FPS (1536 SPF)
  64. Bit depth                                : 16 bits
  65. Compression mode                         : Lossy
  66. Stream size                              : 452 MiB (2%)
  67. Title                                    : Studio.54.2018.1080p.BluRay.REMUX.AVC.TrueHD.5.1-FGT
  68. Language                                 : English
  69. Service kind                             : Complete Main
  70. Default                                  : No
  71. Forced                                   : No

  72. Audio #3
  73. ID                                       : 4
  74. Format                                   : PCM
  75. Format settings                          : Little / Signed
  76. Codec ID                                 : A_PCM/INT/LIT
  77. Duration                                 : 1 h 38 min
  78. Bit rate mode                            : Constant
  79. Bit rate                                 : 2 304 kb/s
  80. Channel(s)                               : 2 channels
  81. Sampling rate                            : 48.0 kHz
  82. Frame rate                               : 30.000 FPS (1600 SPF)
  83. Bit depth                                : 24 bits
  84. Stream size                              : 1.59 GiB (8%)
  85. Title                                    : Studio.54.2018.1080p.BluRay.REMUX.AVC.TrueHD.5.1-FGT
  86. Language                                 : English
  87. Default                                  : No
  88. Forced                                   : No

  89. Menu
  90. 00:00:00.000                             : en:Chapter 01
  91. 00:08:42.772                             : en:Chapter 02
  92. 00:16:23.857                             : en:Chapter 03
  93. 00:24:13.535                             : en:Chapter 04
  94. 00:33:36.806                             : en:Chapter 05
  95. 00:39:56.602                             : en:Chapter 06
  96. 00:47:45.779                             : en:Chapter 07
  97. 00:56:57.914                             : en:Chapter 08
  98. 01:04:10.054                             : en:Chapter 09
  99. 01:11:58.981                             : en:Chapter 10
  100. 01:20:19.397                             : en:Chapter 11
  101. 01:32:57.738                             : en:Chapter 12
复制代码

复制代码

54俱乐部 Studio.54.2018.1080p.BluRay.REMUX.AVC.TrueHD.5.1-FGT 21.19GB-2.png 54俱乐部 Studio.54.2018.1080p.BluRay.REMUX.AVC.TrueHD.5.1-FGT 21.19GB-3.png 54俱乐部 Studio.54.2018.1080p.BluRay.REMUX.AVC.TrueHD.5.1-FGT 21.19GB-4.png






回复

使用道具 举报

懒得打字嘛,点击右侧快捷回复 【右侧内容,后台自定义】
您需要登录后才可以回帖 登录 | 立即加入

本版积分规则

Archiver|小黑屋| 蓝光电影网 |网站地图

Copyright © 2021 Comsenz Inc. Powered by 蓝光电影网

蓝光电影网

本站内容由用户自主分享和转载自互联网,转载目的在于传递更多信息,并不代表本网赞同其观点和对其真实性负责。

如有侵权、违反国家法律政策行为,请联系我们,我们会第一时间及时清除和处理!

举报反馈邮箱:[email protected]

快速回复 返回顶部 返回列表