找回密码

蓝光电影网

查看: 473|回复: 0

[动作] 符碌奇兵/滚雷 Rolling.Thunder.1977.1080p.BluRay.REMUX.AVC.DTS-HD.MA.2.0-FGT 17.90GB

[复制链接]
蓝光币
623
发表于 2018-9-9 23:28:59 | 显示全部楼层 |阅读模式

符碌奇兵/滚雷 Rolling.Thunder.1977.1080p.BluRay.REMUX.AVC.DTS-HD.MA.2.0-FGT 17.90GB-1.jpg
◎译  名 符碌奇兵/滚雷
◎片  名 Rolling Thunder
◎年  代 1977
◎产  地 美国
◎类  别 行动/剧情/犯罪/惊悚
◎语  言 英语/西班牙语
◎上映日期 1977-11-02
◎豆瓣评分 6.6/10 from 38 users
◎豆瓣链接 https://movie.douban.com/subject/1301453/
◎片  长 95 分钟
◎导  演 John Flynn
◎主  演 威廉姆·德瓦内 William Devane
      汤米·李·琼斯 Tommy Lee Jones
      琳达·海恩斯 Linda Haynes

◎简  介

  One of Quentin Tarantino's favorite movies.

  1. Video
  2. ID                                       : 1
  3. Format                                   : AVC
  4. Format/Info                              : Advanced Video Codec
  5. Format profile                           : [url=/cdn-cgi/l/email-protection][email protected][/url]
  6. Format settings                          : CABAC / 4 Ref Frames
  7. Format settings, CABAC                   : Yes
  8. Format settings, ReFrames                : 4 frames
  9. Codec ID                                 : V_MPEG4/ISO/AVC
  10. Duration                                 : 1 h 39 min
  11. Bit rate mode                            : Variable
  12. Bit rate                                 : 24.0 Mb/s
  13. Maximum bit rate                         : 39.0 Mb/s
  14. Width                                    : 1 920 pixels
  15. Height                                   : 1 080 pixels
  16. Display aspect ratio                     : 16:9
  17. Frame rate mode                          : Constant
  18. Frame rate                               : 23.976 (24000/1001) FPS
  19. Color space                              : YUV
  20. Chroma subsampling                       : 4:2:0
  21. Bit depth                                : 8 bits
  22. Scan type                                : Progressive
  23. Bits/(Pixel*Frame)                       : 0.483
  24. Stream size                              : 16.7 GiB (93%)
  25. Title                                    : Rolling.Thunder.1977.1080p.BluRay.REMUX.AVC.DTS-HD.MA.2.0-FGT
  26. Language                                 : English
  27. Default                                  : No
  28. Forced                                   : No

  29. Audio #1
  30. ID                                       : 2
  31. Format                                   : DTS
  32. Format/Info                              : Digital Theater Systems
  33. Format profile                           : MA / Core
  34. Codec ID                                 : A_DTS
  35. Duration                                 : 1 h 39 min
  36. Bit rate mode                            : Variable / Constant
  37. Bit rate                                 : 901 kb/s / 768 kb/s
  38. Channel(s)                               : 2 channels
  39. Channel positions                        : Front: L R
  40. Sampling rate                            : 48.0 kHz
  41. Frame rate                               : 93.750 FPS (512 SPF)
  42. Bit depth                                : 16 bits
  43. Compression mode                         : Lossless / Lossy
  44. Stream size                              : 643 MiB (4%)
  45. Title                                    : Rolling.Thunder.1977.1080p.BluRay.REMUX.AVC.DTS-HD.MA.2.0-FGT
  46. Language                                 : English
  47. Default                                  : Yes
  48. Forced                                   : No

  49. Audio #2
  50. ID                                       : 3
  51. Format                                   : DTS
  52. Format/Info                              : Digital Theater Systems
  53. Codec ID                                 : A_DTS
  54. Duration                                 : 1 h 39 min
  55. Bit rate mode                            : Constant
  56. Bit rate                                 : 768 kb/s
  57. Channel(s)                               : 2 channels
  58. Channel positions                        : Front: L R
  59. Sampling rate                            : 48.0 kHz
  60. Frame rate                               : 93.750 FPS (512 SPF)
  61. Bit depth                                : 16 bits
  62. Compression mode                         : Lossy
  63. Stream size                              : 548 MiB (3%)
  64. Title                                    : Rolling.Thunder.1977.1080p.BluRay.REMUX.AVC.DTS-HD.MA.2.0-FGT
  65. Language                                 : English
  66. Default                                  : No
  67. Forced                                   : No

  68. Menu
  69. 00:00:00.000                             : en:Chapter 01
  70. 00:07:35.079                             : en:Chapter 02
  71. 00:17:32.593                             : en:Chapter 03
  72. 00:29:03.742                             : en:Chapter 04
  73. 00:36:15.923                             : en:Chapter 05
  74. 00:42:44.186                             : en:Chapter 06
  75. 00:48:04.089                             : en:Chapter 07
  76. 00:55:59.064                             : en:Chapter 08
  77. 01:04:49.760                             : en:Chapter 09
  78. 01:13:17.476                             : en:Chapter 10
  79. 01:22:59.224                             : en:Chapter 11
  80. 01:28:37.687                             : en:Chapter 12
  81. 01:39:48.399                             : en:Chapter 13
复制代码

复制代码

符碌奇兵/滚雷 Rolling.Thunder.1977.1080p.BluRay.REMUX.AVC.DTS-HD.MA.2.0-FGT 17.90GB-2.png 符碌奇兵/滚雷 Rolling.Thunder.1977.1080p.BluRay.REMUX.AVC.DTS-HD.MA.2.0-FGT 17.90GB-3.png 符碌奇兵/滚雷 Rolling.Thunder.1977.1080p.BluRay.REMUX.AVC.DTS-HD.MA.2.0-FGT 17.90GB-4.png







回复

使用道具 举报

懒得打字嘛,点击右侧快捷回复 【右侧内容,后台自定义】
您需要登录后才可以回帖 登录 | 立即加入

本版积分规则

Archiver|小黑屋| 蓝光电影网 |网站地图

Copyright © 2021 Comsenz Inc. Powered by 蓝光电影网

蓝光电影网

本站内容由用户自主分享和转载自互联网,转载目的在于传递更多信息,并不代表本网赞同其观点和对其真实性负责。

如有侵权、违反国家法律政策行为,请联系我们,我们会第一时间及时清除和处理!

举报反馈邮箱:[email protected]

快速回复 返回顶部 返回列表