找回密码

蓝光电影网

查看: 940|回复: 0

[喜剧] 女人心海底针/呷醋妙女郎 She-Devil.1989.1080p.BluRay.REMUX.AVC.DD2.0-FGT 13.93GB

[复制链接]
蓝光币
623
发表于 2018-9-9 23:29:19 | 显示全部楼层 |阅读模式

女民气海底针/呷醋妙女郎 She-Devil.1989.1080p.BluRay.REMUX.AVC.DD2.0-FGT 13.93GB-1.jpg
◎译  名 女民气海底针/呷醋妙女郎/拙妻不成欺
◎片  名 She-Devil
◎年  代 1989
◎产  地 美国
◎类  别 笑剧
◎语  言 英语
◎上映日期 1989-12-08
◎豆瓣评分 6.8/10 from 338 users
◎豆瓣链接 https://movie.douban.com/subject/1296811/
◎片  长 99 分钟
◎导  演 Susan Seidelman
◎主  演 梅丽尔·斯特里普 Meryl Streep
      罗西妮 Roseanne
      小艾德·博格里 Ed Begley Jr.

◎简  介

  Reading the comments for this film, two aspects appear as the concentration to the films perceived flaws. The one is a lack of sympathy for Roseanne's character, Ruth. The other is a lack of appreciation for Meryl Streep's performance. Having watched this film many times since it's release, I think I can safely dispute this argument.
  This film certainly I feel has all the markings of a cult favorite. It's dark humor, over charged performances as well as the overall look and feel wedges it someplace between "Heathers" and "Ruthless People". More on the nuances that I feel set this film apart from others later, but lets first deal with the Roseann/Streep problem.
  Quite frankly, I see no problem. Meryl Streep's Mary Fisher is one of the screens funniest inventions. It seems quite clear to me that she enjoyed playing this role because there is no other way such a wonderful performance could have been created. On a number of occasions, there are lengthy shots with no change of camera where she drives through a range of hilarious emotions. How she handles a scene involving a dog licking her feet while she awakes is tremendous. I feel it is one of her strongest performances; she never turns it off, and always delivers it in the correct dosage.
  The issue with Roseanne's character, Ruth, is she is seen as manipulative, uncaring, a monster hell bent on revenge. Ruth, like everything else in this picture is a caricature. This is very much the sort of role we would expect from Roseanne, the domestic goddess taking it all a step further. True, she does wallow in a mean spirited negativity, but it results in a positive outcome for nearly all involved. She takes control of her life and liberates Linda Hunts Nurse Hopper as well as countless women through her Vespa Rose Employment Agency. She returns life to the geriatrics in her care at a nursing home. As a result of Ruth's revenge, Mary Fisher at last becomes recognized as the serious writer she wished to from the start. We even know that Begley's Bob Patchett gets his comeuppance, and accepts it with grace and humility.
  There are dozens of touches brought here which make this a movie so enjoyable to watch. Firstly, there is the remarkable physical change in many of the characters as the story progresses. Roseanne goes from looking like a reject from a freak show to a rather zaftig Joan Collins. Linda Hunt and Sylvia Miles likewise transform, and Streep goes from a pink, frosted confection of a romance novelist, to a black turtle necked, bespectacled writer with a gift for the "post modern metaphor". A certain tone is set when the establishing shot of Mary Fisher "pink palace by the sea" reveals her initials, M F, emblazoned on the massive gate. Streep is given countless occasions to do great business for the camera, as in a scene where her complete lack of comprehension in doing laundry leads her to put half a gallon of bleach and several dryer sheets in a washing machine. Best of all, she manages to give the finger to the "serious critics" while on the Sally Jesse Raphale Show. I honestly don't feel this film is as bad as many would like one to think. If you sit back, and let it unfold as I believe it was intended to, you will find a clever picture that has just the correct amount of overarched villainy and cynicism as many of our favorite black comedies.

  1. Video
  2. ID                                       : 1
  3. Format                                   : AVC
  4. Format/Info                              : Advanced Video Codec
  5. Format profile                           : [url=/cdn-cgi/l/email-protection][email protected][/url]
  6. Format settings                          : CABAC / 4 Ref Frames
  7. Format settings, CABAC                   : Yes
  8. Format settings, ReFrames                : 4 frames
  9. Codec ID                                 : V_MPEG4/ISO/AVC
  10. Duration                                 : 1 h 39 min
  11. Bit rate mode                            : Variable
  12. Bit rate                                 : 19.8 Mb/s
  13. Maximum bit rate                         : 35.0 Mb/s
  14. Width                                    : 1 920 pixels
  15. Height                                   : 1 080 pixels
  16. Display aspect ratio                     : 16:9
  17. Frame rate mode                          : Constant
  18. Frame rate                               : 23.976 (24000/1001) FPS
  19. Standard                                 : NTSC
  20. Color space                              : YUV
  21. Chroma subsampling                       : 4:2:0
  22. Bit depth                                : 8 bits
  23. Scan type                                : Progressive
  24. Bits/(Pixel*Frame)                       : 0.399
  25. Stream size                              : 13.8 GiB (99%)
  26. Title                                    : She-Devil.1989.1080p.BluRay.REMUX.AVC.DD2.0-FGT
  27. Language                                 : English
  28. Default                                  : No
  29. Forced                                   : No
  30. Color range                              : Limited
  31. Color primaries                          : BT.709
  32. Transfer characteristics                 : BT.709
  33. Matrix coefficients                      : BT.709

  34. Audio
  35. ID                                       : 2
  36. Format                                   : AC-3
  37. Format/Info                              : Audio Coding 3
  38. Codec ID                                 : A_AC3
  39. Duration                                 : 1 h 39 min
  40. Bit rate mode                            : Constant
  41. Bit rate                                 : 224 kb/s
  42. Channel(s)                               : 2 channels
  43. Channel positions                        : Front: L R
  44. Sampling rate                            : 48.0 kHz
  45. Frame rate                               : 31.250 FPS (1536 SPF)
  46. Bit depth                                : 16 bits
  47. Compression mode                         : Lossy
  48. Stream size                              : 159 MiB (1%)
  49. Title                                    : She-Devil.1989.1080p.BluRay.REMUX.AVC.DD2.0-FGT
  50. Language                                 : English
  51. Service kind                             : Complete Main
  52. Default                                  : Yes
  53. Forced                                   : No

  54. Menu
  55. 00:00:00.000                             : en:Chapter 01
  56. 00:14:15.938                             : en:Chapter 02
  57. 00:26:50.900                             : en:Chapter 03
  58. 00:37:47.974                             : en:Chapter 04
  59. 00:49:09.154                             : en:Chapter 05
  60. 01:03:05.072                             : en:Chapter 06
  61. 01:14:45.397                             : en:Chapter 07
  62. 01:27:52.850                             : en:Chapter 08
  63. 01:35:13.749                             : en:Chapter 09
复制代码

复制代码

女民气海底针/呷醋妙女郎 She-Devil.1989.1080p.BluRay.REMUX.AVC.DD2.0-FGT 13.93GB-2.png 女民气海底针/呷醋妙女郎 She-Devil.1989.1080p.BluRay.REMUX.AVC.DD2.0-FGT 13.93GB-3.png 女民气海底针/呷醋妙女郎 She-Devil.1989.1080p.BluRay.REMUX.AVC.DD2.0-FGT 13.93GB-4.png






回复

使用道具 举报

懒得打字嘛,点击右侧快捷回复 【右侧内容,后台自定义】
您需要登录后才可以回帖 登录 | 立即加入

本版积分规则

Archiver|小黑屋| 蓝光电影网 |网站地图

Copyright © 2021 Comsenz Inc. Powered by 蓝光电影网

蓝光电影网

本站内容由用户自主分享和转载自互联网,转载目的在于传递更多信息,并不代表本网赞同其观点和对其真实性负责。

如有侵权、违反国家法律政策行为,请联系我们,我们会第一时间及时清除和处理!

举报反馈邮箱:[email protected]

快速回复 返回顶部 返回列表