找回密码

蓝光电影网

查看: 770|回复: 3

[动作] 魔鬼岛 I.Escaped.from.Devils.Island.1973.1080p.BluRay.REMUX.AVC.DTS-HD.MA.2.0-FGT 20.13GB

[复制链接]
蓝光币
623
发表于 2018-9-9 23:30:30 | 显示全部楼层 |阅读模式

魔鬼岛 I.Escaped.from.Devils.Island.1973.1080p.BluRay.REMUX.AVC.DTS-HD.MA.2.0-FGT 20.13GB-1.jpg
◎译  名 魔鬼岛
◎片  名 I Escaped from Devil's Island
◎年  代 1973
◎产  地 墨西哥/美国
◎类  别 行动/冒险
◎语  言 英语
◎上映日期 1974-01-07
◎豆瓣评分 /10 from 0 users
◎豆瓣链接 https://movie.douban.com/subject/1297469/
◎片  长 89 分钟/Mexico: 105 分钟/UK: 87 分钟
◎导  演 威廉 威特尼 (William Witney)
◎主  演 吉姆·布朗 Jim Brown
      克里斯托佛·乔治 Christopher George

◎简  介

  None

  1. Video
  2. ID                                       : 1
  3. Format                                   : AVC
  4. Format/Info                              : Advanced Video Codec
  5. Format profile                           : [url=/cdn-cgi/l/email-protection][email protected][/url]
  6. Format settings                          : CABAC / 4 Ref Frames
  7. Format settings, CABAC                   : Yes
  8. Format settings, ReFrames                : 4 frames
  9. Codec ID                                 : V_MPEG4/ISO/AVC
  10. Duration                                 : 1 h 27 min
  11. Bit rate mode                            : Variable
  12. Bit rate                                 : 30.0 Mb/s
  13. Maximum bit rate                         : 35.0 Mb/s
  14. Width                                    : 1 920 pixels
  15. Height                                   : 1 080 pixels
  16. Display aspect ratio                     : 16:9
  17. Frame rate mode                          : Constant
  18. Frame rate                               : 23.976 (24000/1001) FPS
  19. Standard                                 : Component
  20. Color space                              : YUV
  21. Chroma subsampling                       : 4:2:0
  22. Bit depth                                : 8 bits
  23. Scan type                                : Progressive
  24. Bits/(Pixel*Frame)                       : 0.603
  25. Stream size                              : 18.2 GiB (91%)
  26. Title                                    : I.Escaped.from.Devils.Island.1973.1080p.BluRay.REMUX.AVC.DTS-HD.MA.2.0-FGT
  27. Language                                 : English
  28. Default                                  : No
  29. Forced                                   : No
  30. Color range                              : Limited
  31. Color primaries                          : BT.709
  32. Transfer characteristics                 : BT.709
  33. Matrix coefficients                      : BT.709

  34. Audio #1
  35. ID                                       : 2
  36. Format                                   : DTS
  37. Format/Info                              : Digital Theater Systems
  38. Format profile                           : MA / Core
  39. Codec ID                                 : A_DTS
  40. Duration                                 : 1 h 27 min
  41. Bit rate mode                            : Variable / Constant
  42. Bit rate                                 : 1 573 kb/s / 1 509 kb/s
  43. Channel(s)                               : 2 channels
  44. Channel positions                        : Front: L R
  45. Sampling rate                            : 48.0 kHz
  46. Frame rate                               : 93.750 FPS (512 SPF)
  47. Bit depth                                : 16 bits
  48. Compression mode                         : Lossless / Lossy
  49. Stream size                              : 981 MiB (5%)
  50. Title                                    : I.Escaped.from.Devils.Island.1973.1080p.BluRay.REMUX.AVC.DTS-HD.MA.2.0-FGT
  51. Language                                 : English
  52. Default                                  : Yes
  53. Forced                                   : No

  54. Audio #2
  55. ID                                       : 3
  56. Format                                   : DTS
  57. Format/Info                              : Digital Theater Systems
  58. Codec ID                                 : A_DTS
  59. Duration                                 : 1 h 27 min
  60. Bit rate mode                            : Constant
  61. Bit rate                                 : 1 509 kb/s
  62. Channel(s)                               : 2 channels
  63. Channel positions                        : Front: L R
  64. Sampling rate                            : 48.0 kHz
  65. Frame rate                               : 93.750 FPS (512 SPF)
  66. Bit depth                                : 16 bits
  67. Compression mode                         : Lossy
  68. Stream size                              : 941 MiB (5%)
  69. Title                                    : I.Escaped.from.Devils.Island.1973.1080p.BluRay.REMUX.AVC.DTS-HD.MA.2.0-FGT
  70. Language                                 : English
  71. Default                                  : No
  72. Forced                                   : No

  73. Menu
  74. 00:00:00.000                             : en:Chapter 01
  75. 00:07:30.616                             : en:Chapter 02
  76. 00:16:26.151                             : en:Chapter 03
  77. 00:24:02.941                             : en:Chapter 04
  78. 00:32:00.543                             : en:Chapter 05
  79. 00:38:04.865                             : en:Chapter 06
  80. 00:46:25.449                             : en:Chapter 07
  81. 00:52:59.509                             : en:Chapter 08
  82. 00:58:35.053                             : en:Chapter 09
  83. 01:04:57.810                             : en:Chapter 10
  84. 01:11:00.047                             : en:Chapter 11
  85. 01:19:07.659                             : en:Chapter 12
复制代码

复制代码

魔鬼岛 I.Escaped.from.Devils.Island.1973.1080p.BluRay.REMUX.AVC.DTS-HD.MA.2.0-FGT 20.13GB-2.png 魔鬼岛 I.Escaped.from.Devils.Island.1973.1080p.BluRay.REMUX.AVC.DTS-HD.MA.2.0-FGT 20.13GB-3.png 魔鬼岛 I.Escaped.from.Devils.Island.1973.1080p.BluRay.REMUX.AVC.DTS-HD.MA.2.0-FGT 20.13GB-4.png






回复

使用道具 举报

懒得打字嘛,点击右侧快捷回复 【右侧内容,后台自定义】
您需要登录后才可以回帖 登录 | 立即加入

本版积分规则

Archiver|小黑屋| 蓝光电影网 |网站地图

Copyright © 2021 Comsenz Inc. Powered by 蓝光电影网

蓝光电影网

本站内容由用户自主分享和转载自互联网,转载目的在于传递更多信息,并不代表本网赞同其观点和对其真实性负责。

如有侵权、违反国家法律政策行为,请联系我们,我们会第一时间及时清除和处理!

举报反馈邮箱:[email protected]

快速回复 返回顶部 返回列表