找回密码

蓝光电影网

查看: 1883|回复: 2

[喜剧] 希德姐妹帮/希德姊妹帮 Heathers.1988.REMASTERED.720p.BluRay.X264-AMIABLE 5.47GB

[复制链接]
蓝光币
623
发表于 2018-9-12 00:03:48 | 显示全部楼层 |阅读模式

希德姐妹帮/希德姊妹帮 Heathers.1988.REMASTERED.720p.BluRay.X264-AMIABLE 5.47GB-1.jpg
◎译  名 希德姐妹帮/希德姊妹帮/希瑟姐妹帮
◎片  名 Heathers
◎年  代 1989
◎产  地 美国
◎类  别 笑剧/犯罪
◎语  言 英语
◎上映日期 1989-03-31
◎豆瓣评分 7.5/10 from 2,269 users
◎豆瓣链接 https://movie.douban.com/subject/1293821/
◎片  长 103 分钟
◎导  演 麦克·勒曼 Michael Lehmann
◎主  演 薇诺娜·瑞德 Winona Ryder
      克里斯蒂安·史莱特 Christian Slater
      莎侬·多赫提 Shannen Doherty
      金·沃克 Kim Walker

◎简  介

  希德姐妹帮是黉舍里的一个少女构造,维罗妮卡(薇诺娜?瑞德 Winona Ryder 饰)与另几名成员跟重新领希德(莎侬?多赫提 Shannen Doherty 饰)一路玩弄同学,排解无聊的校园生活。未几,维罗妮卡的留意力被放荡不羁又轻举妄动英俊男生杰森?迪恩(克里斯汀?史莱特 Christian Slater 饰)所吸引,渐渐在心理上冷淡希德,并很快成长到破裂的境界。
  杰森帮维罗妮卡设想整治希德,不意形成对方身亡,二人捏造了希德自杀的假象,事后居然蒙混过关,这对情侣杀人后一发不成整理,用不异的手法继续犯案,而且杰森身上的扑灭性愈发突出,渐渐对维罗妮卡也形成了威胁……

  1. Video
  2. ID                                       : 1
  3. Format                                   : AVC
  4. Format/Info                              : Advanced Video Codec
  5. Format profile                           : [url=/cdn-cgi/l/email-protection][email protected][/url]
  6. Format settings                          : CABAC / 9 Ref Frames
  7. Format settings, CABAC                   : Yes
  8. Format settings, RefFrames               : 9 frames
  9. Codec ID                                 : V_MPEG4/ISO/AVC
  10. Duration                                 : 1 h 43 min
  11. Bit rate                                 : 6 822 kb/s
  12. Width                                    : 1 280 pixels
  13. Height                                   : 688 pixels
  14. Display aspect ratio                     : 1.85:1
  15. Frame rate mode                          : Constant
  16. Frame rate                               : 23.976 (24000/1001) FPS
  17. Color space                              : YUV
  18. Chroma subsampling                       : 4:2:0
  19. Bit depth                                : 8 bits
  20. Scan type                                : Progressive
  21. Bits/(Pixel*Frame)                       : 0.323
  22. Stream size                              : 4.80 GiB (88%)
  23. Writing library                          : x264 core 157 r2932 303c484
  24. Encoding settings                        : cabac=1 / ref=9 / deblock=1:-3:-3 / analyse=0x3:0x133 / me=umh / subme=10 / psy=1 / psy_rd=1.10:0.00 / mixed_ref=1 / me_range=24 / chroma_me=1 / trellis=2 / 8x8dct=1 / cqm=0 / deadzone=21,11 / fast_pskip=0 / chroma_qp_offset=-2 / threads=21 / lookahead_threads=3 / sliced_threads=0 / nr=0 / decimate=1 / interlaced=0 / bluray_compat=0 / constrained_intra=0 / bframes=8 / b_pyramid=2 / b_adapt=2 / b_bias=0 / direct=3 / weightb=1 / open_gop=0 / weightp=2 / keyint=240 / keyint_min=24 / scenecut=40 / intra_refresh=0 / rc_lookahead=60 / rc=2pass / mbtree=1 / bitrate=6822 / ratetol=1.0 / qcomp=0.60 / qpmin=0 / qpmax=69 / qpstep=4 / cplxblur=20.0 / qblur=0.5 / ip_ratio=1.30 / aq=3:0.75
  25. Default                                  : Yes
  26. Forced                                   : No
  27. Statistics Tags Issue                    : no_variable_data 1970-01-01 00:00:00 / no_variable_data 2010-02-22 21:41:29
  28. FromStats_BitRate                        : 6820091
  29. FromStats_Duration                       : 01:43:02.093000000
  30. FromStats_FrameCount                     : 148222
  31. FromStats_StreamSize                     : 5270305298

  32. Audio
  33. ID                                       : 2
  34. Format                                   : DTS
  35. Format/Info                              : Digital Theater Systems
  36. Mode                                     : 16
  37. Format settings, Endianness              : Big
  38. Codec ID                                 : A_DTS
  39. Duration                                 : 1 h 43 min
  40. Bit rate mode                            : Constant
  41. Bit rate                                 : 768 kb/s
  42. Channel(s)                               : 6 channels
  43. Channel positions                        : Front: L C R, Side: L R, LFE
  44. Sampling rate                            : 48.0 kHz
  45. Frame rate                               : 93.750 FPS (512 SPF)
  46. Bit depth                                : 24 bits
  47. Compression mode                         : Lossy
  48. Stream size                              : 566 MiB (10%)
  49. Language                                 : English
  50. Default                                  : Yes
  51. Forced                                   : No
  52. Statistics Tags Issue                    : no_variable_data 1970-01-01 00:00:00 / no_variable_data 2010-02-22 21:41:29
  53. FromStats_BitRate                        : 767999
  54. FromStats_Duration                       : 01:43:02.059000000
  55. FromStats_FrameCount                     : 579568
  56. FromStats_StreamSize                     : 593477632

  57. Text #1
  58. ID                                       : 3
  59. Format                                   : UTF-8
  60. Codec ID                                 : S_TEXT/UTF8
  61. Codec ID/Info                            : UTF-8 Plain Text
  62. Language                                 : English
  63. Default                                  : No
  64. Forced                                   : No
  65. Statistics Tags Issue                    : no_variable_data 1970-01-01 00:00:00 / no_variable_data 2010-02-22 21:41:29
  66. FromStats_BitRate                        : 60
  67. FromStats_Duration                       : 01:42:01.907000000
  68. FromStats_FrameCount                     : 1368
  69. FromStats_StreamSize                     : 46630

  70. Text #2
  71. ID                                       : 4
  72. Format                                   : UTF-8
  73. Codec ID                                 : S_TEXT/UTF8
  74. Codec ID/Info                            : UTF-8 Plain Text
  75. Title                                    : SDH
  76. Language                                 : English
  77. Default                                  : No
  78. Forced                                   : No
  79. Statistics Tags Issue                    : no_variable_data 1970-01-01 00:00:00 / no_variable_data 2010-02-22 21:41:29
  80. FromStats_BitRate                        : 65
  81. FromStats_Duration                       : 01:42:05.661000000
  82. FromStats_FrameCount                     : 1516
  83. FromStats_StreamSize                     : 50376

  84. Menu
  85. 00:00:00.000                             : en:00:00:00.000
  86. 00:09:34.199                             : en:00:09:34.199
  87. 00:16:05.631                             : en:00:16:05.631
  88. 00:24:21.085                             : en:00:24:21.085
  89. 00:33:41.019                             : en:00:33:41.019
  90. 00:43:04.415                             : en:00:43:04.415
  91. 00:53:01.095                             : en:00:53:01.095
  92. 01:01:49.289                             : en:01:01:49.289
  93. 01:09:02.055                             : en:01:09:02.055
  94. 01:17:08.541                             : en:01:17:08.541
  95. 01:25:56.026                             : en:01:25:56.026
  96. 01:31:41.538                             : en:01:31:41.538
复制代码

复制代码

希德姐妹帮/希德姊妹帮 Heathers.1988.REMASTERED.720p.BluRay.X264-AMIABLE 5.47GB-2.jpg






回复

使用道具 举报

懒得打字嘛,点击右侧快捷回复 【右侧内容,后台自定义】
您需要登录后才可以回帖 登录 | 立即加入

本版积分规则

Archiver|小黑屋| 蓝光电影网 |网站地图

Copyright © 2021 Comsenz Inc. Powered by 蓝光电影网

蓝光电影网

本站内容由用户自主分享和转载自互联网,转载目的在于传递更多信息,并不代表本网赞同其观点和对其真实性负责。

如有侵权、违反国家法律政策行为,请联系我们,我们会第一时间及时清除和处理!

举报反馈邮箱:[email protected]

快速回复 返回顶部 返回列表