找回密码

蓝光电影网

查看: 562|回复: 0

[剧情] 妈妈晚餐吃什么?/阿妈今晚食乜餸? Whats.For.Dinner.Mom.2016.720p.BluRay.x264-REGRET 5.47GB

[复制链接]
蓝光币
623
发表于 2018-9-12 00:05:27 | 显示全部楼层 |阅读模式


◎译  名 妈妈,晚饭吃什么?/阿妈,今晚食乜餸?(港)
◎片  名 ママ、ごはんまだ?
◎年  代 2016
◎产  地 日本/台湾
◎类  别 剧情/家庭
◎语  言 日语/闽南语
◎上映日期 2017-02-11(日本)
◎豆瓣评分 6.8/10 from 332 users
◎豆瓣链接 https://movie.douban.com/subject/26720473/
◎片  长 117分钟
◎导  演 白羽弥仁 Mitsuhito Shiraha
◎主  演 木南晴夏 Haruka Kinami
      藤本泉 Izumi Fujimoto
      河合美智子 Michiko Kawai
      吴朋奉 Pong Fong Wu
      甲本雅裕 Masahiro K?moto
      近野成美 Narumi Konno
      春风亭升太 Sh?ta Shunp?tei
      华荣翁 Hua Rong Weng
      山崎实在 Mami Yamasaki

◎简  介

  日本?台湾合作映画「ママ、ごはんまだ?」の石川県内ロケが1月29日に行われ、囲み取材に出演者と監督、原作者の一青妙が列席した。本作は歌手?一青窈の姉にあたる妙が手がけたエッセイ「私の箱子」「ママ、ごはんまだ?」をもとに、料理を通して家属の絆を描く物語。台湾人の父と日本人の母のもとに生まれた妙役に「知らない、ふたり」の木南晴夏、窈役に「アオハライド」の藤本泉、2人の母親かづ枝役には河合美智子が升引された。監督は「能登の花ヨメ」の白羽弥仁が務める。
  北金沢市や中能登町、台湾などを舞台にした本作。この日は、妙と窈が東京から北陸新幹線に乗り金沢駅に到着したシーンが撮影された。白羽は「8年ぶりに石川を舞台にした映画を撮れて光栄。家属の絆について考えてもらえる映画にしたい」と意気込みを述べた。
  「ママ、ごはんまだ?」は2017年早春の公開を予定している。

  1. Video
  2. ID                                       : 1
  3. Format                                   : AVC
  4. Format/Info                              : Advanced Video Codec
  5. Format profile                           : [url=/cdn-cgi/l/email-protection][email protected][/url]
  6. Format settings                          : CABAC / 5 Ref Frames
  7. Format settings, CABAC                   : Yes
  8. Format settings, RefFrames               : 5 frames
  9. Codec ID                                 : V_MPEG4/ISO/AVC
  10. Duration                                 : 1 h 56 min
  11. Bit rate                                 : 5 470 kb/s
  12. Width                                    : 1 280 pixels
  13. Height                                   : 672 pixels
  14. Display aspect ratio                     : 1.905
  15. Frame rate mode                          : Constant
  16. Frame rate                               : 24.000 FPS
  17. Color space                              : YUV
  18. Chroma subsampling                       : 4:2:0
  19. Bit depth                                : 8 bits
  20. Scan type                                : Progressive
  21. Bits/(Pixel*Frame)                       : 0.265
  22. Stream size                              : 4.45 GiB (81%)
  23. Writing library                          : x264 core 155 r2901 7d0ff22
  24. Encoding settings                        : cabac=1 / ref=5 / deblock=1:-3:-3 / analyse=0x3:0x133 / me=umh / subme=9 / psy=1 / psy_rd=1.00:0.00 / mixed_ref=1 / me_range=16 / chroma_me=1 / trellis=2 / 8x8dct=1 / cqm=0 / deadzone=21,11 / fast_pskip=0 / chroma_qp_offset=-2 / threads=21 / lookahead_threads=1 / sliced_threads=0 / nr=0 / decimate=1 / interlaced=0 / bluray_compat=0 / constrained_intra=0 / bframes=3 / b_pyramid=2 / b_adapt=1 / b_bias=0 / direct=3 / weightb=1 / open_gop=0 / weightp=2 / keyint=240 / keyint_min=24 / scenecut=40 / intra_refresh=0 / rc_lookahead=50 / rc=2pass / mbtree=1 / bitrate=5470 / ratetol=1.0 / qcomp=0.60 / qpmin=0 / qpmax=69 / qpstep=4 / cplxblur=20.0 / qblur=0.5 / ip_ratio=1.40 / aq=1:1.00
  25. Language                                 : English
  26. Default                                  : Yes
  27. Forced                                   : No

  28. Audio
  29. ID                                       : 2
  30. Format                                   : FLAC
  31. Format/Info                              : Free Lossless Audio Codec
  32. Codec ID                                 : A_FLAC
  33. Duration                                 : 1 h 56 min
  34. Bit rate mode                            : Variable
  35. Bit rate                                 : 1 243 kb/s
  36. Channel(s)                               : 2 channels
  37. Channel positions                        : Front: L R
  38. Sampling rate                            : 48.0 kHz
  39. Frame rate                               : 11.719 FPS (4096 SPF)
  40. Bit depth                                : 24 bits
  41. Stream size                              : 1.01 GiB (19%)
  42. Writing library                          : libFLAC 1.2.1 (UTC 2007-09-17)
  43. Language                                 : Japanese
  44. Default                                  : Yes
  45. Forced                                   : No

  46. Text
  47. ID                                       : 3
  48. Format                                   : UTF-8
  49. Codec ID                                 : S_TEXT/UTF8
  50. Codec ID/Info                            : UTF-8 Plain Text
  51. Duration                                 : 1 h 55 min
  52. Bit rate                                 : 30 b/s
  53. Count of elements                        : 1040
  54. Stream size                              : 25.6 KiB (0%)
  55. Title                                    : English
  56. Language                                 : English
  57. Default                                  : Yes
  58. Forced                                   : Yes

  59. Menu
  60. 00:00:00.000                             : en:00:00:00.000
  61. 00:07:42.125                             : en:00:07:42.125
  62. 00:13:11.667                             : en:00:13:11.667
  63. 00:16:46.625                             : en:00:16:46.625
  64. 00:21:20.583                             : en:00:21:20.583
  65. 00:28:22.917                             : en:00:28:22.917
  66. 00:33:26.833                             : en:00:33:26.833
  67. 00:39:47.000                             : en:00:39:47.000
  68. 00:46:35.542                             : en:00:46:35.542
  69. 00:51:17.292                             : en:00:51:17.292
  70. 00:58:28.292                             : en:00:58:28.292
  71. 01:03:24.417                             : en:01:03:24.417
  72. 01:09:31.833                             : en:01:09:31.833
  73. 01:16:59.125                             : en:01:16:59.125
  74. 01:21:27.042                             : en:01:21:27.042
  75. 01:27:47.083                             : en:01:27:47.083
  76. 01:33:43.375                             : en:01:33:43.375
  77. 01:39:13.917                             : en:01:39:13.917
  78. 01:45:14.833                             : en:01:45:14.833
  79. 01:50:52.042                             : en:01:50:52.042
复制代码

复制代码








回复

使用道具 举报

懒得打字嘛,点击右侧快捷回复 【右侧内容,后台自定义】
您需要登录后才可以回帖 登录 | 立即加入

本版积分规则

Archiver|小黑屋| 蓝光电影网 |网站地图

Copyright © 2021 Comsenz Inc. Powered by 蓝光电影网

蓝光电影网

本站内容由用户自主分享和转载自互联网,转载目的在于传递更多信息,并不代表本网赞同其观点和对其真实性负责。

如有侵权、违反国家法律政策行为,请联系我们,我们会第一时间及时清除和处理!

举报反馈邮箱:[email protected]

快速回复 返回顶部 返回列表