找回密码

蓝光电影网

查看: 2493|回复: 1

黑客帝国/廿二世纪杀人网络 The.Matrix.1999.RERIP.2160p.BluRay.x264.8bit.SDR.DTS-HD.MA.TrueHD.7.1.Atmos-SWTYBLZ 65.17GB

[复制链接]
蓝光币
623
发表于 2018-9-12 00:15:10 | 显示全部楼层 |阅读模式

黑客帝国/廿二世纪杀人收集 The.Matrix.1999.RERIP.2160p.BluRay.x264.8bit.SDR.DTS-HD.MA.TrueHD.7.1.Atmos-SWTYBLZ 65.17GB-1.jpg
◎译  名 黑客帝国/廿二世纪杀人收集(港)/骇客使命(台)
◎片  名 The Matrix
◎年  代 1999
◎产  地 美国/澳大利亚
◎类  别 行动/科幻
◎语  言 英语
◎上映日期 1999-03-31(美国)
◎豆瓣评分 8.9/10 from 332,910 users
◎豆瓣链接 https://movie.douban.com/subject/1291843/
◎片  长 136分钟
◎导  演 安迪·沃卓斯基 Andy Wachowski / 拉娜·沃卓斯基 Lana Wachowski
◎主  演 基努·李维斯 Keanu Reeves
      凯瑞-安·莫斯 Carrie-Anne Moss
      劳伦斯·菲什伯恩 Laurence Fishburne
      雨果·维文 Hugo Weaving
      格洛丽亚·福斯特 Gloria Foster
      乔·潘托里亚诺 Joe Pantoliano
      马库斯·钟 Marcus Chong
      朱利安·阿拉汗加 Julian Arahanga
      马特·多兰 Matt Doran

◎简  介

  未几的未来,收集黑客尼奥(基奴李维斯 饰)对这个看似一般的现实天下发生了思疑。他结识了黑客崔妮蒂(凯莉·安·摩丝 饰),并见到了黑客构造的首领墨菲斯(劳伦斯·菲什伯恩 饰)。墨菲斯告诉他,现实天下实在是由一个名叫“母体”的计较机野生智能系统控制,人们就像他们饲养的动物,没有自在和思惟,而尼奥就是可以拯救人类的救世主。
  可是,救赎之路历来都不会风平浪静,到底那里才是实在的天下?若何才能打败那些超人一样的特勤?尼奥能否是人类的希望?这是黑客的帝国,法式和代码接待大师的到来。.

◎获奖情况

  第72届奥斯卡金像奖  (2000)
  最好剪辑 扎克·斯伯格
  最好视觉结果 加内克·西尔斯 / John Gaeta / Steve Courtley / Jon Thum
  最好音效剪辑 Dane A. Davis
  最好声响 约翰·T·赖茨 / 大卫·李 / 大卫·E·坎贝尔 / 格雷格·鲁德洛夫

  第53届英国电影学院奖  (2000)
  电影奖 最好摄影(提名) 比尔·波普
  电影奖 最好剪辑(提名) 扎克·斯伯格
  电影奖 最好艺术指导(提名) Owen Paterson
  电影奖 最好特别视觉结果 John Gaeta / Jon Thum / Steve Courtley / 加内克·西尔斯
  电影奖 最好音效 约翰·T·赖茨 / 大卫·李 / 大卫·E·坎贝尔 / Dane A. Davis / 格雷格·鲁德洛夫
  电影奖 最好音效(提名) 约翰·T·赖茨 / 大卫·李 / 大卫·E·坎贝尔 / Dane A. Davis / 格雷格·鲁德洛夫

  第23届日本电影学院奖  (2000)
  最好外语片(提名)

  1. Video
  2. ID                                       : 1
  3. Format                                   : AVC
  4. Format/Info                              : Advanced Video Codec
  5. Format profile                           : [url=/cdn-cgi/l/email-protection][email protected][/url]
  6. Format settings                          : CABAC / 5 Ref Frames
  7. Format settings, CABAC                   : Yes
  8. Format settings, RefFrames               : 5 frames
  9. Codec ID                                 : V_MPEG4/ISO/AVC
  10. Duration                                 : 2 h 16 min
  11. Bit rate                                 : 59.4 Mb/s
  12. Width                                    : 3 840 pixels
  13. Height                                   : 1 600 pixels
  14. Display aspect ratio                     : 2.40:1
  15. Frame rate mode                          : Constant
  16. Frame rate                               : 23.976 (24000/1001) FPS
  17. Color space                              : YUV
  18. Chroma subsampling                       : 4:2:0
  19. Bit depth                                : 8 bits
  20. Scan type                                : Progressive
  21. Bits/(Pixel*Frame)                       : 0.403
  22. Stream size                              : 56.5 GiB (87%)
  23. Title                                    : The.Matrix.1999.RERIP.2160p.BluRay.x264.8bit.SDR.DTS-HD.MA.TrueHD.7.1.Atmos-SWTYBLZ
  24. Writing library                          : x264 core 155 r2901 7d0ff22
  25. Encoding settings                        : cabac=1 / ref=5 / deblock=1:-1:-1 / analyse=0x3:0x113 / me=umh / subme=10 / psy=1 / psy_rd=1.00:0.15 / mixed_ref=1 / me_range=48 / chroma_me=1 / trellis=2 / 8x8dct=1 / cqm=0 / deadzone=21,11 / fast_pskip=1 / chroma_qp_offset=-3 / threads=50 / lookahead_threads=4 / sliced_threads=0 / nr=0 / decimate=0 / interlaced=0 / bluray_compat=0 / constrained_intra=0 / bframes=3 / b_pyramid=2 / b_adapt=2 / b_bias=0 / direct=3 / weightb=1 / open_gop=0 / weightp=2 / keyint=250 / keyint_min=23 / scenecut=40 / intra_refresh=0 / rc_lookahead=50 / rc=crf / mbtree=1 / crf=18.0 / qcomp=0.60 / qpmin=0 / qpmax=69 / qpstep=4 / ip_ratio=1.40 / aq=1:1.00
  26. Default                                  : Yes
  27. Forced                                   : No

  28. Audio #1
  29. ID                                       : 2
  30. Format                                   : TrueHD
  31. Format profile                           : TrueHD+Atmos / TrueHD
  32. Codec ID                                 : A_TRUEHD
  33. Duration                                 : 2 h 16 min
  34. Bit rate mode                            : Variable
  35. Bit rate                                 : 4 420 kb/s
  36. Maximum bit rate                         : 7 794 kb/s
  37. Channel(s)                               : Object Based / 8 channels
  38. Channel positions                        : Object Based / Front: L C R, Side: L R, Back: L R, LFE
  39. Sampling rate                            :  / 48.0 kHz
  40. Frame rate                               : 1 200.000 FPS (40 SPF)
  41. Compression mode                         : Lossless
  42. Stream size                              : 4.21 GiB (6%)
  43. Title                                    : The.Matrix.1999.RERIP.2160p.BluRay.x264.8bit.SDR.DTS-HD.MA.TrueHD.7.1.Atmos-SWTYBLZ
  44. Language                                 : English
  45. Default                                  : Yes
  46. Forced                                   : No

  47. Audio #2
  48. ID                                       : 3
  49. Format                                   : DTS
  50. Format/Info                              : Digital Theater Systems
  51. Format profile                           : MA / Core
  52. Codec ID                                 : A_DTS
  53. Duration                                 : 2 h 16 min
  54. Bit rate mode                            : Variable / Constant
  55. Bit rate                                 : 3 746 kb/s / 1 509 kb/s
  56. Channel(s)                               : 8 channels / 6 channels
  57. Channel positions                        : Front: L C R, Side: L R, Back: L R, LFE / Front: L C R, Side: L R, LFE
  58. Sampling rate                            : 48.0 kHz
  59. Frame rate                               : 93.750 FPS (512 SPF)
  60. Bit depth                                : 24 bits
  61. Compression mode                         : Lossless / Lossy
  62. Stream size                              : 3.57 GiB (5%)
  63. Title                                    : The.Matrix.1999.RERIP.2160p.BluRay.x264.8bit.SDR.DTS-HD.MA.TrueHD.7.1.Atmos-SWTYBLZ
  64. Language                                 : English
  65. Default                                  : No
  66. Forced                                   : No

  67. Audio #3
  68. ID                                       : 4
  69. Format                                   : AC-3
  70. Format/Info                              : Audio Coding 3
  71. Codec ID                                 : A_AC3
  72. Duration                                 : 2 h 16 min
  73. Bit rate mode                            : Constant
  74. Bit rate                                 : 448 kb/s
  75. Channel(s)                               : 6 channels
  76. Channel positions                        : Front: L C R, Side: L R, LFE
  77. Sampling rate                            : 48.0 kHz
  78. Frame rate                               : 31.250 FPS (1536 SPF)
  79. Bit depth                                : 16 bits
  80. Compression mode                         : Lossy
  81. Stream size                              : 437 MiB (1%)
  82. Title                                    : The.Matrix.1999.RERIP.2160p.BluRay.x264.8bit.SDR.DTS-HD.MA.TrueHD.7.1.Atmos-SWTYBLZ
  83. Language                                 : English
  84. Service kind                             : Complete Main
  85. Default                                  : No
  86. Forced                                   : No

  87. Text #1
  88. ID                                       : 5
  89. Format                                   : UTF-8
  90. Codec ID                                 : S_TEXT/UTF8
  91. Codec ID/Info                            : UTF-8 Plain Text
  92. Duration                                 : 2 h 7 min
  93. Bit rate                                 : 40 b/s
  94. Count of elements                        : 1342
  95. Stream size                              : 37.8 KiB (0%)
  96. Title                                    : English-SRT
  97. Language                                 : English
  98. Default                                  : Yes
  99. Forced                                   : No

  100. Text #2
  101. ID                                       : 6
  102. Format                                   : PGS
  103. Muxing mode                              : zlib
  104. Codec ID                                 : S_HDMV/PGS
  105. Codec ID/Info                            : Picture based subtitle format used on BDs/HD-DVDs
  106. Duration                                 : 2 h 15 min
  107. Bit rate                                 : 21.3 kb/s
  108. Count of elements                        : 2746
  109. Stream size                              : 20.6 MiB (0%)
  110. Title                                    : English-PGS
  111. Language                                 : English
  112. Default                                  : No
  113. Forced                                   : No

  114. Text #3
  115. ID                                       : 7
  116. Format                                   : PGS
  117. Muxing mode                              : zlib
  118. Codec ID                                 : S_HDMV/PGS
  119. Codec ID/Info                            : Picture based subtitle format used on BDs/HD-DVDs
  120. Duration                                 : 2 h 15 min
  121. Bit rate                                 : 22.3 kb/s
  122. Count of elements                        : 2844
  123. Stream size                              : 21.6 MiB (0%)
  124. Title                                    : German-PGS
  125. Language                                 : German
  126. Default                                  : No
  127. Forced                                   : No

  128. Text #4
  129. ID                                       : 8
  130. Format                                   : PGS
  131. Muxing mode                              : zlib
  132. Codec ID                                 : S_HDMV/PGS
  133. Codec ID/Info                            : Picture based subtitle format used on BDs/HD-DVDs
  134. Duration                                 : 2 h 7 min
  135. Bit rate                                 : 17.7 kb/s
  136. Count of elements                        : 2477
  137. Stream size                              : 16.2 MiB (0%)
  138. Title                                    : Japanese-PGS
  139. Language                                 : Japanese
  140. Default                                  : No
  141. Forced                                   : No

  142. Text #5
  143. ID                                       : 9
  144. Format                                   : PGS
  145. Muxing mode                              : zlib
  146. Codec ID                                 : S_HDMV/PGS
  147. Codec ID/Info                            : Picture based subtitle format used on BDs/HD-DVDs
  148. Duration                                 : 2 h 15 min
  149. Bit rate                                 : 20.6 kb/s
  150. Count of elements                        : 2702
  151. Stream size                              : 20.0 MiB (0%)
  152. Title                                    : Italian-PGS
  153. Language                                 : Italian
  154. Default                                  : No
  155. Forced                                   : No

  156. Text #6
  157. ID                                       : 10
  158. Format                                   : PGS
  159. Muxing mode                              : zlib
  160. Codec ID                                 : S_HDMV/PGS
  161. Codec ID/Info                            : Picture based subtitle format used on BDs/HD-DVDs
  162. Duration                                 : 2 h 15 min
  163. Bit rate                                 : 18.9 kb/s
  164. Count of elements                        : 2660
  165. Stream size                              : 18.4 MiB (0%)
  166. Title                                    : Spanish-PGS
  167. Language                                 : Spanish
  168. Default                                  : No
  169. Forced                                   : No

  170. Text #7
  171. ID                                       : 11
  172. Format                                   : PGS
  173. Muxing mode                              : zlib
  174. Codec ID                                 : S_HDMV/PGS
  175. Codec ID/Info                            : Picture based subtitle format used on BDs/HD-DVDs
  176. Duration                                 : 2 h 15 min
  177. Bit rate                                 : 17.2 kb/s
  178. Count of elements                        : 2620
  179. Stream size                              : 16.7 MiB (0%)
  180. Title                                    : Chinese-PGS
  181. Language                                 : Chinese
  182. Default                                  : No
  183. Forced                                   : No

  184. Text #8
  185. ID                                       : 12
  186. Format                                   : PGS
  187. Muxing mode                              : zlib
  188. Codec ID                                 : S_HDMV/PGS
  189. Codec ID/Info                            : Picture based subtitle format used on BDs/HD-DVDs
  190. Duration                                 : 2 h 15 min
  191. Bit rate                                 : 14.1 kb/s
  192. Count of elements                        : 2600
  193. Stream size                              : 13.7 MiB (0%)
  194. Title                                    : Korean-PGS
  195. Language                                 : Korean
  196. Default                                  : No
  197. Forced                                   : No

  198. Text #9
  199. ID                                       : 13
  200. Format                                   : PGS
  201. Muxing mode                              : zlib
  202. Codec ID                                 : S_HDMV/PGS
  203. Codec ID/Info                            : Picture based subtitle format used on BDs/HD-DVDs
  204. Duration                                 : 2 h 15 min
  205. Bit rate                                 : 20.5 kb/s
  206. Count of elements                        : 2606
  207. Stream size                              : 19.9 MiB (0%)
  208. Title                                    : Portuguese-PGS
  209. Language                                 : Portuguese
  210. Default                                  : No
  211. Forced                                   : No

  212. Text #10
  213. ID                                       : 14
  214. Format                                   : PGS
  215. Muxing mode                              : zlib
  216. Codec ID                                 : S_HDMV/PGS
  217. Codec ID/Info                            : Picture based subtitle format used on BDs/HD-DVDs
  218. Duration                                 : 2 h 15 min
  219. Bit rate                                 : 10.3 kb/s
  220. Count of elements                        : 2764
  221. Stream size                              : 9.95 MiB (0%)
  222. Title                                    : Arabic-PGS
  223. Language                                 : Arabic
  224. Default                                  : No
  225. Forced                                   : No

  226. Text #11
  227. ID                                       : 15
  228. Format                                   : PGS
  229. Muxing mode                              : zlib
  230. Codec ID                                 : S_HDMV/PGS
  231. Codec ID/Info                            : Picture based subtitle format used on BDs/HD-DVDs
  232. Duration                                 : 2 h 15 min
  233. Bit rate                                 : 18.7 kb/s
  234. Count of elements                        : 2774
  235. Stream size                              : 18.1 MiB (0%)
  236. Title                                    : Croatian-PGS
  237. Language                                 : Croatian
  238. Default                                  : No
  239. Forced                                   : No

  240. Text #12
  241. ID                                       : 16
  242. Format                                   : PGS
  243. Muxing mode                              : zlib
  244. Codec ID                                 : S_HDMV/PGS
  245. Codec ID/Info                            : Picture based subtitle format used on BDs/HD-DVDs
  246. Duration                                 : 2 h 15 min
  247. Bit rate                                 : 16.6 kb/s
  248. Count of elements                        : 2730
  249. Stream size                              : 16.0 MiB (0%)
  250. Title                                    : Czech-PGS
  251. Language                                 : Czech
  252. Default                                  : No
  253. Forced                                   : No

  254. Text #13
  255. ID                                       : 17
  256. Format                                   : PGS
  257. Muxing mode                              : zlib
  258. Codec ID                                 : S_HDMV/PGS
  259. Codec ID/Info                            : Picture based subtitle format used on BDs/HD-DVDs
  260. Duration                                 : 2 h 15 min
  261. Bit rate                                 : 18.6 kb/s
  262. Count of elements                        : 1844
  263. Stream size                              : 18.0 MiB (0%)
  264. Title                                    : Danish-PGS
  265. Language                                 : Danish
  266. Default                                  : No
  267. Forced                                   : No

  268. Text #14
  269. ID                                       : 18
  270. Format                                   : PGS
  271. Muxing mode                              : zlib
  272. Codec ID                                 : S_HDMV/PGS
  273. Codec ID/Info                            : Picture based subtitle format used on BDs/HD-DVDs
  274. Duration                                 : 2 h 15 min
  275. Bit rate                                 : 18.1 kb/s
  276. Count of elements                        : 1658
  277. Stream size                              : 17.6 MiB (0%)
  278. Title                                    : Finnish-PGS
  279. Language                                 : Finnish
  280. Default                                  : No
  281. Forced                                   : No

  282. Text #15
  283. ID                                       : 19
  284. Format                                   : PGS
  285. Muxing mode                              : zlib
  286. Codec ID                                 : S_HDMV/PGS
  287. Codec ID/Info                            : Picture based subtitle format used on BDs/HD-DVDs
  288. Duration                                 : 2 h 15 min
  289. Bit rate                                 : 19.2 kb/s
  290. Count of elements                        : 2382
  291. Stream size                              : 18.6 MiB (0%)
  292. Title                                    : Greek-PGS
  293. Language                                 : Greek
  294. Default                                  : No
  295. Forced                                   : No

  296. Text #16
  297. ID                                       : 20
  298. Format                                   : PGS
  299. Muxing mode                              : zlib
  300. Codec ID                                 : S_HDMV/PGS
  301. Codec ID/Info                            : Picture based subtitle format used on BDs/HD-DVDs
  302. Duration                                 : 2 h 15 min
  303. Bit rate                                 : 20.0 kb/s
  304. Count of elements                        : 1984
  305. Stream size                              : 19.3 MiB (0%)
  306. Title                                    : Norwegian-PGS
  307. Language                                 : Norwegian
  308. Default                                  : No
  309. Forced                                   : No

  310. Text #17
  311. ID                                       : 21
  312. Format                                   : PGS
  313. Muxing mode                              : zlib
  314. Codec ID                                 : S_HDMV/PGS
  315. Codec ID/Info                            : Picture based subtitle format used on BDs/HD-DVDs
  316. Duration                                 : 2 h 15 min
  317. Bit rate                                 : 18.2 kb/s
  318. Count of elements                        : 2774
  319. Stream size                              : 17.7 MiB (0%)
  320. Title                                    : Hungarian-PGS
  321. Language                                 : Hungarian
  322. Default                                  : No
  323. Forced                                   : No

  324. Text #18
  325. ID                                       : 22
  326. Format                                   : PGS
  327. Muxing mode                              : zlib
  328. Codec ID                                 : S_HDMV/PGS
  329. Codec ID/Info                            : Picture based subtitle format used on BDs/HD-DVDs
  330. Duration                                 : 2 h 15 min
  331. Bit rate                                 : 16.1 kb/s
  332. Count of elements                        : 2770
  333. Stream size                              : 15.6 MiB (0%)
  334. Title                                    : Polish-PGS
  335. Language                                 : Polish
  336. Default                                  : No
  337. Forced                                   : No

  338. Text #19
  339. ID                                       : 23
  340. Format                                   : PGS
  341. Muxing mode                              : zlib
  342. Codec ID                                 : S_HDMV/PGS
  343. Codec ID/Info                            : Picture based subtitle format used on BDs/HD-DVDs
  344. Duration                                 : 2 h 15 min
  345. Bit rate                                 : 21.7 kb/s
  346. Count of elements                        : 2644
  347. Stream size                              : 21.1 MiB (0%)
  348. Title                                    : Portuguese-PGS
  349. Language                                 : Portuguese
  350. Default                                  : No
  351. Forced                                   : No

  352. Text #20
  353. ID                                       : 24
  354. Format                                   : PGS
  355. Muxing mode                              : zlib
  356. Codec ID                                 : S_HDMV/PGS
  357. Codec ID/Info                            : Picture based subtitle format used on BDs/HD-DVDs
  358. Duration                                 : 2 h 7 min
  359. Bit rate                                 : 263 b/s
  360. Count of elements                        : 42
  361. Stream size                              : 246 KiB (0%)
  362. Title                                    : Hungarian-PGS
  363. Language                                 : Hungarian
  364. Default                                  : No
  365. Forced                                   : No

  366. Text #21
  367. ID                                       : 25
  368. Format                                   : PGS
  369. Muxing mode                              : zlib
  370. Codec ID                                 : S_HDMV/PGS
  371. Codec ID/Info                            : Picture based subtitle format used on BDs/HD-DVDs
  372. Duration                                 : 2 h 15 min
  373. Bit rate                                 : 18.3 kb/s
  374. Count of elements                        : 2736
  375. Stream size                              : 17.7 MiB (0%)
  376. Title                                    : Romanian-PGS
  377. Language                                 : Romanian
  378. Default                                  : No
  379. Forced                                   : No

  380. Text #22
  381. ID                                       : 26
  382. Format                                   : PGS
  383. Muxing mode                              : zlib
  384. Codec ID                                 : S_HDMV/PGS
  385. Codec ID/Info                            : Picture based subtitle format used on BDs/HD-DVDs
  386. Duration                                 : 2 h 15 min
  387. Bit rate                                 : 20.6 kb/s
  388. Count of elements                        : 2734
  389. Stream size                              : 20.0 MiB (0%)
  390. Title                                    : Russian-PGS
  391. Language                                 : Russian
  392. Default                                  : No
  393. Forced                                   : No

  394. Text #23
  395. ID                                       : 27
  396. Format                                   : PGS
  397. Muxing mode                              : zlib
  398. Codec ID                                 : S_HDMV/PGS
  399. Codec ID/Info                            : Picture based subtitle format used on BDs/HD-DVDs
  400. Duration                                 : 2 h 15 min
  401. Bit rate                                 : 17.7 kb/s
  402. Count of elements                        : 1740
  403. Stream size                              : 17.2 MiB (0%)
  404. Title                                    : Swedish-PGS
  405. Language                                 : Swedish
  406. Default                                  : No
  407. Forced                                   : No

  408. Text #24
  409. ID                                       : 28
  410. Format                                   : PGS
  411. Muxing mode                              : zlib
  412. Codec ID                                 : S_HDMV/PGS
  413. Codec ID/Info                            : Picture based subtitle format used on BDs/HD-DVDs
  414. Duration                                 : 2 h 15 min
  415. Bit rate                                 : 20.5 kb/s
  416. Count of elements                        : 2604
  417. Stream size                              : 19.9 MiB (0%)
  418. Title                                    : Thai-PGS
  419. Language                                 : Thai
  420. Default                                  : No
  421. Forced                                   : No

  422. Text #25
  423. ID                                       : 29
  424. Format                                   : PGS
  425. Muxing mode                              : zlib
  426. Codec ID                                 : S_HDMV/PGS
  427. Codec ID/Info                            : Picture based subtitle format used on BDs/HD-DVDs
  428. Duration                                 : 2 h 15 min
  429. Bit rate                                 : 19.4 kb/s
  430. Count of elements                        : 2730
  431. Stream size                              : 18.8 MiB (0%)
  432. Title                                    : Turkish-PGS
  433. Language                                 : Turkish
  434. Default                                  : No
  435. Forced                                   : No

  436. Text #26
  437. ID                                       : 30
  438. Format                                   : PGS
  439. Muxing mode                              : zlib
  440. Codec ID                                 : S_HDMV/PGS
  441. Codec ID/Info                            : Picture based subtitle format used on BDs/HD-DVDs
  442. Duration                                 : 2 h 15 min
  443. Bit rate                                 : 205 b/s
  444. Count of elements                        : 36
  445. Stream size                              : 204 KiB (0%)
  446. Title                                    : Czech-PGS
  447. Language                                 : Czech
  448. Default                                  : No
  449. Forced                                   : No

  450. Text #27
  451. ID                                       : 31
  452. Format                                   : PGS
  453. Muxing mode                              : zlib
  454. Codec ID                                 : S_HDMV/PGS
  455. Codec ID/Info                            : Picture based subtitle format used on BDs/HD-DVDs
  456. Duration                                 : 2 h 15 min
  457. Bit rate                                 : 272 b/s
  458. Count of elements                        : 44
  459. Stream size                              : 270 KiB (0%)
  460. Title                                    : Turkish-PGS
  461. Language                                 : Turkish
  462. Default                                  : No
  463. Forced                                   : No

  464. Menu
  465. 00:00:00.000                             : en:Chapter 1
  466. 00:03:25.788                             : en:Chapter 2
  467. 00:06:35.645                             : en:Chapter 3
  468. 00:09:42.665                             : en:Chapter 4
  469. 00:11:58.300                             : en:Chapter 5
  470. 00:16:47.423                             : en:Chapter 6
  471. 00:21:33.542                             : en:Chapter 7
  472. 00:25:08.590                             : en:Chapter 8
  473. 00:28:51.146                             : en:Chapter 9
  474. 00:32:25.193                             : en:Chapter 10
  475. 00:35:21.869                             : en:Chapter 11
  476. 00:38:40.901                             : en:Chapter 12
  477. 00:44:22.576                             : en:Chapter 13
  478. 00:46:33.540                             : en:Chapter 14
  479. 00:48:57.851                             : en:Chapter 15
  480. 00:53:31.291                             : en:Chapter 16
  481. 00:56:32.138                             : en:Chapter 17
  482. 00:59:01.287                             : en:Chapter 18
  483. 01:01:08.581                             : en:Chapter 19
  484. 01:05:16.495                             : en:Chapter 20
  485. 01:07:46.812                             : en:Chapter 21
  486. 01:12:33.432                             : en:Chapter 22
  487. 01:17:49.581                             : en:Chapter 23
  488. 01:21:03.108                             : en:Chapter 24
  489. 01:25:05.350                             : en:Chapter 25
  490. 01:29:45.129                             : en:Chapter 26
  491. 01:31:27.565                             : en:Chapter 27
  492. 01:37:25.256                             : en:Chapter 28
  493. 01:41:04.975                             : en:Chapter 29
  494. 01:44:20.337                             : en:Chapter 30
  495. 01:47:00.497                             : en:Chapter 31
  496. 01:50:18.528                             : en:Chapter 32
  497. 01:52:56.686                             : en:Chapter 33
  498. 01:56:36.906                             : en:Chapter 34
  499. 01:58:49.372                             : en:Chapter 35
  500. 02:02:27.423                             : en:Chapter 36
  501. 02:05:41.784                             : en:Chapter 37
  502. 02:08:46.802                             : en:Chapter 38
复制代码

复制代码

黑客帝国/廿二世纪杀人收集 The.Matrix.1999.RERIP.2160p.BluRay.x264.8bit.SDR.DTS-HD.MA.TrueHD.7.1.Atmos-SWTYBLZ 65.17GB-2.png 黑客帝国/廿二世纪杀人收集 The.Matrix.1999.RERIP.2160p.BluRay.x264.8bit.SDR.DTS-HD.MA.TrueHD.7.1.Atmos-SWTYBLZ 65.17GB-3.png 黑客帝国/廿二世纪杀人收集 The.Matrix.1999.RERIP.2160p.BluRay.x264.8bit.SDR.DTS-HD.MA.TrueHD.7.1.Atmos-SWTYBLZ 65.17GB-4.png 黑客帝国/廿二世纪杀人收集 The.Matrix.1999.RERIP.2160p.BluRay.x264.8bit.SDR.DTS-HD.MA.TrueHD.7.1.Atmos-SWTYBLZ 65.17GB-5.png 黑客帝国/廿二世纪杀人收集 The.Matrix.1999.RERIP.2160p.BluRay.x264.8bit.SDR.DTS-HD.MA.TrueHD.7.1.Atmos-SWTYBLZ 65.17GB-6.png 黑客帝国/廿二世纪杀人收集 The.Matrix.1999.RERIP.2160p.BluRay.x264.8bit.SDR.DTS-HD.MA.TrueHD.7.1.Atmos-SWTYBLZ 65.17GB-7.png 黑客帝国/廿二世纪杀人收集 The.Matrix.1999.RERIP.2160p.BluRay.x264.8bit.SDR.DTS-HD.MA.TrueHD.7.1.Atmos-SWTYBLZ 65.17GB-8.png







回复

使用道具 举报

蓝光币
152
发表于 2018-9-12 19:43:41 | 显示全部楼层
谢谢分享。。。。。。
回复

使用道具 举报

懒得打字嘛,点击右侧快捷回复 【右侧内容,后台自定义】
您需要登录后才可以回帖 登录 | 立即加入

本版积分规则

Archiver|小黑屋| 蓝光电影网 |网站地图

Copyright © 2021 Comsenz Inc. Powered by 蓝光电影网

蓝光电影网

本站内容由用户自主分享和转载自互联网,转载目的在于传递更多信息,并不代表本网赞同其观点和对其真实性负责。

如有侵权、违反国家法律政策行为,请联系我们,我们会第一时间及时清除和处理!

举报反馈邮箱:[email protected]

快速回复 返回顶部 返回列表