找回密码

蓝光电影网

查看: 1164|回复: 0

[剧情] 妈妈晚餐吃什么?/阿妈今晚食乜餸? Whats.For.Dinner.Mom.2016.JAPANESE.1080p.BluRay.REMUX.AVC.LPCM.2.0-FGT 20.52GB

[复制链接]
蓝光币
623
发表于 2018-9-12 00:19:54 | 显示全部楼层 |阅读模式

妈妈晚饭吃什么?/阿妈今晚食乜餸? Whats.For.Dinner.Mom.2016.JAPANESE.1080p.BluRay.REMUX.AVC.LPCM.2.0-FGT 20.52GB-1.jpg
◎译  名 妈妈,晚饭吃什么?/阿妈,今晚食乜餸?(港)
◎片  名 ママ、ごはんまだ?
◎年  代 2016
◎产  地 日本/台湾
◎类  别 剧情/家庭
◎语  言 日语/闽南语
◎上映日期 2016-09-20(圣塞巴斯蒂安电影节)/2017-02-11(日本)
◎豆瓣评分 6.8/10 from 336 users
◎豆瓣链接 https://movie.douban.com/subject/26720473/
◎片  长 117分钟
◎导  演 白羽弥仁 Mitsuhito Shiraha
◎主  演 木南晴夏 Haruka Kinami
      广泽草 S? Hirosawa
      河合美智子 Michiko Kawai
      藤本泉 Izumi Fujimoto
      近野成美 Narumi Konno
      甲本雅裕 Masahiro K?moto
      春风亭升太 Sh?ta Shunp?tei
      华荣翁 Hua Rong Weng
      吴朋奉 Pong Fong Wu
      山崎实在 Mami Yamasaki

◎简  介

  一青姐妹来自台湾人父亲与日本人母亲(河合美智子 饰)连系的家庭,童年时代都在台湾度过。妹妹一青窈(藤本泉 饰)诞生后一家人移居到东京,但是没有多久父亲就放手人寰,独留母女三人相依为命。
  母亲天天都对峙亲身下厨,烹饪女儿最爱好的台湾菜。母亲的料理加深了家人世的拘束,也为邻人亲友带来幸运。后来,母亲因病归天,在母亲病逝后20年,姐妹俩在母亲墓前知晓了妈妈的奥秘,姐姐(木南晴夏 饰)由于某个动机的驱使,动身前往睽违已久的第二故乡台湾......

  1. Video
  2. ID                                       : 1
  3. Format                                   : AVC
  4. Format/Info                              : Advanced Video Codec
  5. Format profile                           : [url=/cdn-cgi/l/email-protection][email protected][/url]
  6. Format settings                          : CABAC / 4 Ref Frames
  7. Format settings, CABAC                   : Yes
  8. Format settings, ReFrames                : 4 frames
  9. Codec ID                                 : V_MPEG4/ISO/AVC
  10. Duration                                 : 1 h 56 min
  11. Bit rate mode                            : Variable
  12. Bit rate                                 : 22.9 Mb/s
  13. Maximum bit rate                         : 29.0 Mb/s
  14. Width                                    : 1 920 pixels
  15. Height                                   : 1 080 pixels
  16. Display aspect ratio                     : 16:9
  17. Frame rate mode                          : Constant
  18. Frame rate                               : 24.000 FPS
  19. Standard                                 : NTSC
  20. Color space                              : YUV
  21. Chroma subsampling                       : 4:2:0
  22. Bit depth                                : 8 bits
  23. Scan type                                : Progressive
  24. Bits/(Pixel*Frame)                       : 0.460
  25. Stream size                              : 18.6 GiB (91%)
  26. Title                                    : Whats.For.Dinner.Mom.2016.JAPANESE.1080p.BluRay.REMUX.AVC.LPCM.2.0-FGT
  27. Language                                 : English
  28. Default                                  : No
  29. Forced                                   : No
  30. Color range                              : Limited
  31. Color primaries                          : BT.709
  32. Transfer characteristics                 : BT.709
  33. Matrix coefficients                      : BT.709

  34. Audio
  35. ID                                       : 2
  36. Format                                   : PCM
  37. Format settings                          : Little / Signed
  38. Codec ID                                 : A_PCM/INT/LIT
  39. Duration                                 : 1 h 56 min
  40. Bit rate mode                            : Constant
  41. Bit rate                                 : 2 304 kb/s
  42. Channel(s)                               : 2 channels
  43. Sampling rate                            : 48.0 kHz
  44. Frame rate                               : 30.000 FPS (1600 SPF)
  45. Bit depth                                : 24 bits
  46. Stream size                              : 1.88 GiB (9%)
  47. Title                                    : Whats.For.Dinner.Mom.2016.JAPANESE.1080p.BluRay.REMUX.AVC.LPCM.2.0-FGT
  48. Language                                 : Japanese
  49. Default                                  : Yes
  50. Forced                                   : No

  51. Text #1
  52. ID                                       : 3
  53. Format                                   : PGS
  54. Muxing mode                              : zlib
  55. Codec ID                                 : S_HDMV/PGS
  56. Codec ID/Info                            : Picture based subtitle format used on BDs/HD-DVDs
  57. Duration                                 : 1 h 55 min
  58. Bit rate                                 : 24.0 kb/s
  59. Count of elements                        : 2070
  60. Stream size                              : 19.9 MiB (0%)
  61. Title                                    : English-PGS
  62. Language                                 : English
  63. Default                                  : Yes
  64. Forced                                   : Yes

  65. Text #2
  66. ID                                       : 4
  67. Format                                   : PGS
  68. Muxing mode                              : zlib
  69. Codec ID                                 : S_HDMV/PGS
  70. Codec ID/Info                            : Picture based subtitle format used on BDs/HD-DVDs
  71. Duration                                 : 1 h 55 min
  72. Bit rate                                 : 19.4 kb/s
  73. Count of elements                        : 2060
  74. Stream size                              : 16.0 MiB (0%)
  75. Title                                    : Chinese-PGS
  76. Language                                 : Chinese
  77. Default                                  : No
  78. Forced                                   : No

  79. Text #3
  80. ID                                       : 5
  81. Format                                   : PGS
  82. Muxing mode                              : zlib
  83. Codec ID                                 : S_HDMV/PGS
  84. Codec ID/Info                            : Picture based subtitle format used on BDs/HD-DVDs
  85. Duration                                 : 1 h 55 min
  86. Bit rate                                 : 19.0 kb/s
  87. Count of elements                        : 2060
  88. Stream size                              : 15.6 MiB (0%)
  89. Title                                    : Chinese-PGS
  90. Language                                 : Chinese
  91. Default                                  : No
  92. Forced                                   : No

  93. Menu
  94. 00:00:00.000                             : en:Chapter 01
  95. 00:07:42.125                             : en:Chapter 02
  96. 00:13:11.666                             : en:Chapter 03
  97. 00:16:46.458                             : en:Chapter 04
  98. 00:21:20.583                             : en:Chapter 05
  99. 00:28:22.833                             : en:Chapter 06
  100. 00:33:26.833                             : en:Chapter 07
  101. 00:39:47.000                             : en:Chapter 08
  102. 00:46:35.541                             : en:Chapter 09
  103. 00:51:17.250                             : en:Chapter 10
  104. 00:58:28.250                             : en:Chapter 11
  105. 01:03:24.041                             : en:Chapter 12
  106. 01:09:31.625                             : en:Chapter 13
  107. 01:16:59.083                             : en:Chapter 14
  108. 01:21:26.666                             : en:Chapter 15
  109. 01:27:46.958                             : en:Chapter 16
  110. 01:33:43.083                             : en:Chapter 17
  111. 01:39:13.791                             : en:Chapter 18
  112. 01:45:14.750                             : en:Chapter 19
  113. 01:50:52.041                             : en:Chapter 20
复制代码

复制代码

妈妈晚饭吃什么?/阿妈今晚食乜餸? Whats.For.Dinner.Mom.2016.JAPANESE.1080p.BluRay.REMUX.AVC.LPCM.2.0-FGT 20.52GB-2.png 妈妈晚饭吃什么?/阿妈今晚食乜餸? Whats.For.Dinner.Mom.2016.JAPANESE.1080p.BluRay.REMUX.AVC.LPCM.2.0-FGT 20.52GB-3.png 妈妈晚饭吃什么?/阿妈今晚食乜餸? Whats.For.Dinner.Mom.2016.JAPANESE.1080p.BluRay.REMUX.AVC.LPCM.2.0-FGT 20.52GB-4.png






回复

使用道具 举报

懒得打字嘛,点击右侧快捷回复 【右侧内容,后台自定义】
您需要登录后才可以回帖 登录 | 立即加入

本版积分规则

Archiver|小黑屋| 蓝光电影网 |网站地图

Copyright © 2021 Comsenz Inc. Powered by 蓝光电影网

蓝光电影网

本站内容由用户自主分享和转载自互联网,转载目的在于传递更多信息,并不代表本网赞同其观点和对其真实性负责。

如有侵权、违反国家法律政策行为,请联系我们,我们会第一时间及时清除和处理!

举报反馈邮箱:[email protected]

快速回复 返回顶部 返回列表