找回密码

蓝光电影网

查看: 808|回复: 3

[冒险] 血枪富士 Bloody.Spear.at.Mount.Fuji.1955.JAPANESE.1080p.BluRay.REMUX.AVC.LPCM.2.0-FGT 21.42GB

[复制链接]
蓝光币
623
发表于 2018-9-12 00:23:27 | 显示全部楼层 |阅读模式

血枪富士 Bloody.Spear.at.Mount.Fuji.1955.JAPANESE.1080p.BluRay.REMUX.AVC.LPCM.2.0-FGT 21.42GB-1.jpg
◎译  名 血枪富士
◎片  名 血槍富士
◎年  代 1955
◎产  地 日本
◎类  别 冒险/剧情
◎语  言 日语
◎上映日期 1955-02-27(日本)
◎豆瓣评分 7.6/10 from 240 users
◎豆瓣链接 https://movie.douban.com/subject/1755415/
◎片  长 Japan: 94 分钟
◎导  演 内田吐梦 Tomu Uchida
◎主  演 片冈千惠藏  Chiezo Kataoka
      月形龙之介 Ryunosuke Tsukigata
      田代百合子 Yuriko Tashiro
      加东大介 Daisuke Kat?
      进藤英太郎 Eitar? Shind?
      小川虎之助 Toranosuke Ogawa
      赤木春惠 Harue Akagi

◎简  介

  持枪随从权八受命庇护少店主小十郎及随从源太去江户,与他们同业的还有小百货贩子传次、外出售身的农家姑娘和老爷茂作、推拿师巡礼、卖艺的澄母女、形迹可疑的藤三郎,还有流浪儿次郎。权八看见少店主小十郎和随从都酗酒贪酒,很是不安。夜幕来临,一行人在袋井住下。传次思疑带着很多钱的藤三郎是大盗,正欲追踪,实在住在隔邻的巡礼才是实在的大盗六卫门。当晚,权八受澄之邀出门,小十郎与源太乘隙大喝起酒来,幸亏权八实时赶回才没出什么工作。第二天,六门卫偷大人的盘缠,被权太擒获。藤三郎所带的钱本来是为了赎回五年前卖出的女儿,可现在他晓得女儿已死,就用这笔钱为农家姑娘赎了身。小十郎与源太又进了小酒馆,酣醉后遭了军人的辣手。
  影片按照日本作家井上金太郎于1927所作的《道中悲记》改编而成。这是一部历史剧,以表示“虔诚”为主线贯串始终,充实地应用了所谓正统历史剧的表示手法,以古典的手法和游记形式拍摄,剧中进场人物各具特点。导演内田吐梦晚年当演员时便已经起头了电影生活,他在二次大战时代曾执导过很多电影,为日本有声电影的成长起到了不成轻忽的历史感化。该片遭到了各界注视,入选1959年《电影旬报》十部佳片的第八位。

  1. Video
  2. ID                                       : 1
  3. Format                                   : AVC
  4. Format/Info                              : Advanced Video Codec
  5. Format profile                           : [url=/cdn-cgi/l/email-protection][email protected][/url]
  6. Format settings                          : CABAC / 3 Ref Frames
  7. Format settings, CABAC                   : Yes
  8. Format settings, ReFrames                : 3 frames
  9. Codec ID                                 : V_MPEG4/ISO/AVC
  10. Duration                                 : 1 h 34 min
  11. Bit rate mode                            : Variable
  12. Bit rate                                 : 28.0 Mb/s
  13. Maximum bit rate                         : 35.0 Mb/s
  14. Width                                    : 1 920 pixels
  15. Height                                   : 1 080 pixels
  16. Display aspect ratio                     : 16:9
  17. Frame rate mode                          : Constant
  18. Frame rate                               : 23.976 (24000/1001) FPS
  19. Standard                                 : NTSC
  20. Color space                              : YUV
  21. Chroma subsampling                       : 4:2:0
  22. Bit depth                                : 8 bits
  23. Scan type                                : Progressive
  24. Bits/(Pixel*Frame)                       : 0.563
  25. Stream size                              : 18.4 GiB (86%)
  26. Title                                    : Bloody.Spear.at.Mount.Fuji.1955.JAPANESE.1080p.BluRay.REMUX.AVC.LPCM.2.0-FGT
  27. Language                                 : English
  28. Default                                  : No
  29. Forced                                   : No
  30. Color range                              : Limited
  31. Color primaries                          : BT.709
  32. Transfer characteristics                 : BT.709
  33. Matrix coefficients                      : BT.709

  34. Audio #1
  35. ID                                       : 2
  36. Format                                   : PCM
  37. Format settings                          : Little / Signed
  38. Codec ID                                 : A_PCM/INT/LIT
  39. Duration                                 : 1 h 34 min
  40. Bit rate mode                            : Constant
  41. Bit rate                                 : 2 304 kb/s
  42. Channel(s)                               : 2 channels
  43. Sampling rate                            : 48.0 kHz
  44. Frame rate                               : 30.000 FPS (1600 SPF)
  45. Bit depth                                : 24 bits
  46. Stream size                              : 1.51 GiB (7%)
  47. Title                                    : Bloody.Spear.at.Mount.Fuji.1955.JAPANESE.1080p.BluRay.REMUX.AVC.LPCM.2.0-FGT
  48. Language                                 : Japanese
  49. Default                                  : Yes
  50. Forced                                   : No

  51. Audio #2
  52. ID                                       : 3
  53. Format                                   : PCM
  54. Format settings                          : Little / Signed
  55. Codec ID                                 : A_PCM/INT/LIT
  56. Duration                                 : 1 h 34 min
  57. Bit rate mode                            : Constant
  58. Bit rate                                 : 2 304 kb/s
  59. Channel(s)                               : 2 channels
  60. Sampling rate                            : 48.0 kHz
  61. Frame rate                               : 30.000 FPS (1600 SPF)
  62. Bit depth                                : 24 bits
  63. Stream size                              : 1.51 GiB (7%)
  64. Title                                    : Bloody.Spear.at.Mount.Fuji.1955.JAPANESE.1080p.BluRay.REMUX.AVC.LPCM.2.0-FGT
  65. Language                                 : English
  66. Default                                  : No
  67. Forced                                   : No

  68. Text
  69. ID                                       : 4
  70. Format                                   : PGS
  71. Muxing mode                              : zlib
  72. Codec ID                                 : S_HDMV/PGS
  73. Codec ID/Info                            : Picture based subtitle format used on BDs/HD-DVDs
  74. Duration                                 : 1 h 33 min
  75. Bit rate                                 : 18.5 kb/s
  76. Count of elements                        : 1464
  77. Stream size                              : 12.4 MiB (0%)
  78. Title                                    : English-PGS
  79. Language                                 : English
  80. Default                                  : Yes
  81. Forced                                   : Yes

  82. Menu
  83. 00:00:00.000                             : en:Chapter 01
  84. 00:08:05.276                             : en:Chapter 02
  85. 00:15:53.869                             : en:Chapter 03
  86. 00:23:08.345                             : en:Chapter 04
  87. 00:30:38.378                             : en:Chapter 05
  88. 00:38:57.752                             : en:Chapter 06
  89. 00:46:00.632                             : en:Chapter 07
  90. 00:54:48.118                             : en:Chapter 08
  91. 01:03:16.292                             : en:Chapter 09
  92. 01:09:30.875                             : en:Chapter 10
  93. 01:17:18.008                             : en:Chapter 11
  94. 01:24:22.223                             : en:Chapter 12
复制代码

复制代码

血枪富士 Bloody.Spear.at.Mount.Fuji.1955.JAPANESE.1080p.BluRay.REMUX.AVC.LPCM.2.0-FGT 21.42GB-2.png 血枪富士 Bloody.Spear.at.Mount.Fuji.1955.JAPANESE.1080p.BluRay.REMUX.AVC.LPCM.2.0-FGT 21.42GB-3.png 血枪富士 Bloody.Spear.at.Mount.Fuji.1955.JAPANESE.1080p.BluRay.REMUX.AVC.LPCM.2.0-FGT 21.42GB-4.png







回复

使用道具 举报

懒得打字嘛,点击右侧快捷回复 【右侧内容,后台自定义】
您需要登录后才可以回帖 登录 | 立即加入

本版积分规则

Archiver|小黑屋| 蓝光电影网 |网站地图

Copyright © 2021 Comsenz Inc. Powered by 蓝光电影网

蓝光电影网

本站内容由用户自主分享和转载自互联网,转载目的在于传递更多信息,并不代表本网赞同其观点和对其真实性负责。

如有侵权、违反国家法律政策行为,请联系我们,我们会第一时间及时清除和处理!

举报反馈邮箱:[email protected]

快速回复 返回顶部 返回列表