找回密码

蓝光电影网

查看: 2327|回复: 7

[REMUX.HEVC] 七小福 Painted.Faces.1988.CHINESE.1080p.BluRay.REMUX.AVC.LPCM.2.0-FGT 18.05GB

[复制链接]
蓝光币
623
发表于 2018-9-12 09:50:31 | 显示全部楼层 |阅读模式

◎译  名 PaintedFaces
◎片  名 七小福
◎年  代 1988
◎产  地 香港
◎类  别 行动
◎语  言 粤语
◎上映日期 1988-11-10
◎豆瓣评分 7.5/10 from 1,888 users
◎豆瓣链接 https://movie.douban.com/subject/1296044/
◎片  长 108分钟
◎导  演 罗启锐
◎主  演 洪金宝
      郑佩佩
      林正英
      钟锦任
      张文龙
      岑建勋
      午马
      杨任贤
      黄剑伟

◎简  介

  小龙(张文龙 饰)诞生于贫苦的家庭当中,母亲有力抚养小龙,因而将他送入了戏剧黉舍拜于占元(洪金宝 饰)为师,进修身手。在黉舍中,小龙结识了三毛(钟锦任 饰)、阿彪(黄剑伟 饰)同等门师兄,相互之间结下了极为深厚的友谊。
  校规森严,三毛和小龙等人吃尽了苦头,却照旧酷爱着这门奇迹,于占元虽然概况上黑口黑面,却发自心里的庇护和疼爱着他的门生们。一次偶然中,三毛结识了名为程水仙的粤剧花旦,两民气心相印,走到了一路。随着时候的推移,京剧的热度逐步退却,观众越来越少,很多同业转战电影行业,混得风生水起。入不够出的于占元终极决议封闭黉舍,小龙等人是以落空了唯一庇护他们的故里,师徒依依不舍的分袂,迈向各自的人生。

  1. Video
  2. ID                                       : 1
  3. Format                                   : AVC
  4. Format/Info                              : Advanced Video Codec
  5. Format profile                           : [url=/cdn-cgi/l/email-protection][email protected][/url]
  6. Format settings                          : CABAC / 4 Ref Frames
  7. Format settings, CABAC                   : Yes
  8. Format settings, ReFrames                : 4 frames
  9. Codec ID                                 : V_MPEG4/ISO/AVC
  10. Duration                                 : 1 h 52 min
  11. Bit rate mode                            : Variable
  12. Bit rate                                 : 19.9 Mb/s
  13. Maximum bit rate                         : 25.0 Mb/s
  14. Width                                    : 1 920 pixels
  15. Height                                   : 1 080 pixels
  16. Display aspect ratio                     : 16:9
  17. Frame rate mode                          : Constant
  18. Frame rate                               : 24.000 FPS
  19. Color space                              : YUV
  20. Chroma subsampling                       : 4:2:0
  21. Bit depth                                : 8 bits
  22. Scan type                                : Progressive
  23. Bits/(Pixel*Frame)                       : 0.399
  24. Stream size                              : 15.6 GiB (86%)
  25. Title                                    : Painted.Faces.1988.CHINESE.1080p.BluRay.REMUX.AVC.LPCM.2.0-FGT
  26. Language                                 : English
  27. Default                                  : No
  28. Forced                                   : No

  29. Audio #1
  30. ID                                       : 2
  31. Format                                   : PCM
  32. Format settings                          : Little / Signed
  33. Codec ID                                 : A_PCM/INT/LIT
  34. Duration                                 : 1 h 52 min
  35. Bit rate mode                            : Constant
  36. Bit rate                                 : 1 536 kb/s
  37. Channel(s)                               : 2 channels
  38. Sampling rate                            : 48.0 kHz
  39. Frame rate                               : 30.000 FPS (1600 SPF)
  40. Bit depth                                : 16 bits
  41. Stream size                              : 1.21 GiB (7%)
  42. Title                                    : Painted.Faces.1988.CHINESE.1080p.BluRay.REMUX.AVC.LPCM.2.0-FGT
  43. Language                                 : Chinese
  44. Default                                  : Yes
  45. Forced                                   : No

  46. Audio #2
  47. ID                                       : 3
  48. Format                                   : PCM
  49. Format settings                          : Little / Signed
  50. Codec ID                                 : A_PCM/INT/LIT
  51. Duration                                 : 1 h 52 min
  52. Bit rate mode                            : Constant
  53. Bit rate                                 : 1 536 kb/s
  54. Channel(s)                               : 2 channels
  55. Sampling rate                            : 48.0 kHz
  56. Frame rate                               : 30.000 FPS (1600 SPF)
  57. Bit depth                                : 16 bits
  58. Stream size                              : 1.21 GiB (7%)
  59. Title                                    : Painted.Faces.1988.CHINESE.1080p.BluRay.REMUX.AVC.LPCM.2.0-FGT
  60. Language                                 : Chinese
  61. Default                                  : No
  62. Forced                                   : No

  63. Text #1
  64. ID                                       : 4
  65. Format                                   : PGS
  66. Muxing mode                              : zlib
  67. Codec ID                                 : S_HDMV/PGS
  68. Codec ID/Info                            : Picture based subtitle format used on BDs/HD-DVDs
  69. Duration                                 : 1 h 45 min
  70. Bit rate                                 : 30.7 kb/s
  71. Count of elements                        : 2343
  72. Stream size                              : 23.3 MiB (0%)
  73. Title                                    : English-PGS
  74. Language                                 : English
  75. Default                                  : Yes
  76. Forced                                   : Yes

  77. Text #2
  78. ID                                       : 5
  79. Format                                   : PGS
  80. Muxing mode                              : zlib
  81. Codec ID                                 : S_HDMV/PGS
  82. Codec ID/Info                            : Picture based subtitle format used on BDs/HD-DVDs
  83. Duration                                 : 1 h 45 min
  84. Bit rate                                 : 26.3 kb/s
  85. Count of elements                        : 2339
  86. Stream size                              : 19.9 MiB (0%)
  87. Title                                    : Chinese-PGS
  88. Language                                 : Chinese
  89. Default                                  : No
  90. Forced                                   : No

  91. Text #3
  92. ID                                       : 6
  93. Format                                   : PGS
  94. Muxing mode                              : zlib
  95. Codec ID                                 : S_HDMV/PGS
  96. Codec ID/Info                            : Picture based subtitle format used on BDs/HD-DVDs
  97. Duration                                 : 1 h 45 min
  98. Bit rate                                 : 26.3 kb/s
  99. Count of elements                        : 2343
  100. Stream size                              : 19.9 MiB (0%)
  101. Title                                    : Chinese-PGS
  102. Language                                 : Chinese
  103. Default                                  : No
  104. Forced                                   : No

  105. Menu
  106. 00:00:00.000                             : en:Chapter 01
  107. 00:12:33.458                             : en:Chapter 02
  108. 00:20:57.541                             : en:Chapter 03
  109. 00:28:39.000                             : en:Chapter 04
  110. 00:38:15.791                             : en:Chapter 05
  111. 00:47:55.083                             : en:Chapter 06
  112. 00:57:54.625                             : en:Chapter 07
  113. 01:04:45.833                             : en:Chapter 08
  114. 01:14:07.208                             : en:Chapter 09
  115. 01:25:35.583                             : en:Chapter 10
  116. 01:31:13.958                             : en:Chapter 11
  117. 01:45:51.583                             : en:Chapter 12
复制代码

复制代码











回复

使用道具 举报

蓝光币
563
发表于 2018-9-13 10:38:39 | 显示全部楼层
看到这帖子真是高兴!
回复 支持 反对

使用道具 举报

蓝光币
674
发表于 2018-9-14 07:36:10 | 显示全部楼层
强烈支持楼主ing……
回复 支持 反对

使用道具 举报

蓝光币
1248
发表于 2018-9-14 11:42:13 | 显示全部楼层
支持一下  !!!!!!!!!!!!!!!老电影  !!!!!!!!!!!!!!!!!!!!
回复 支持 反对

使用道具 举报

蓝光币
327
发表于 2018-9-16 08:27:42 | 显示全部楼层
强烈支持楼主ing……
回复 支持 反对

使用道具 举报

蓝光币
327
发表于 2018-9-19 08:05:03 | 显示全部楼层
看到这帖子真是高兴!
回复 支持 反对

使用道具 举报

蓝光币
641
发表于 2018-11-11 13:12:54 | 显示全部楼层
太生气了,无法HOLD啦 >_<......
回复 支持 反对

使用道具 举报

蓝光币
641
发表于 2018-11-14 16:42:56 | 显示全部楼层
楼主加油,我们都看好你哦。
回复 支持 反对

使用道具 举报

懒得打字嘛,点击右侧快捷回复 【右侧内容,后台自定义】
您需要登录后才可以回帖 登录 | 立即加入

本版积分规则

Archiver|小黑屋| 蓝光电影网 |网站地图

Copyright © 2021 Comsenz Inc. Powered by 蓝光电影网

蓝光电影网

本站内容由用户自主分享和转载自互联网,转载目的在于传递更多信息,并不代表本网赞同其观点和对其真实性负责。

如有侵权、违反国家法律政策行为,请联系我们,我们会第一时间及时清除和处理!

举报反馈邮箱:[email protected]

快速回复 返回顶部 返回列表