找回密码

蓝光电影网

查看: 537|回复: 0

[喜剧] 青春大反抗/宅男卡卡 Youth.in.Revolt.2009.1080p.Bluray.x264-CBGB 6.56GB

[复制链接]
蓝光币
623
发表于 2018-9-12 10:37:55 | 显示全部楼层 |阅读模式

青春大抵挡/宅男卡卡 Youth.in.Revolt.2009.1080p.Bluray.x264-CBGB 6.56GB-1.jpg
◎译  名 青春大抵挡/宅男卡卡(台)/叛逆青春
◎片  名 Youth in Revolt
◎年  代 2009
◎产  地 美国
◎类  别 笑剧/剧情/恋爱
◎语  言 英语
◎上映日期 2010-01-08
◎豆瓣评分 6.4/10 from 7,051 users
◎豆瓣链接 https://movie.douban.com/subject/3006416/
◎片  长 90分钟
◎导  演 米盖尔·阿尔特塔 Miguel Arteta
◎主  演 迈克尔·塞拉 Michael Cera
      波茜娅·道布尔戴 Portia Doubleday
      珍·斯马特 Jean Smart
      扎克·加利凡纳基斯 Zach Galifianakis
      史蒂夫·布西密 Steve Buscemi
      雷·利奥塔 Ray Liotta
      贾斯汀·朗 Justin Long
      鲁妮·玛拉 Rooney Mara

◎简  介

  影片的故事灵感来自于极具荒诞主义写实手法的作家C·D·佩恩的小说《青春大抵挡:尼克·特威斯普的冒险传奇》,经过格斯汀·纳什之手创作改编成剧本。
  尼克(迈克尔·塞拉 Michael Cera 饰)痴迷于法国文化,但总显得与他品德格不入,家庭情况也让他力所不及。直到他碰到了标致的邻家女孩辛妮(波茜娅·道布尔戴 Portia Doubleday 饰)。她喜好收藏法国歌手唱片,让尼克感觉两人是天生一对,但作为处男的尼克若何应对。为了赢得辛妮的芳心,尼禁止造出了别的一个自我——弗朗西斯·狄林杰尔。弗朗西斯与素性懦弱的尼克完成相反,他是一个纯洁的坏男孩,会做一些尼克能够永久都不敢尝试的工作。“两人”联手频出“奇招”,引失笑料不竭。
  这一次,尼克会完成自己的青春大抵挡吗?

  1. Video
  2. ID                                       : 1
  3. Format                                   : AVC
  4. Format/Info                              : Advanced Video Codec
  5. Format profile                           : [url=/cdn-cgi/l/email-protection][email protected][/url]
  6. Format settings                          : CABAC / 4 Ref Frames
  7. Format settings, CABAC                   : Yes
  8. Format settings, ReFrames                : 4 frames
  9. Codec ID                                 : V_MPEG4/ISO/AVC
  10. Duration                                 : 1 h 29 min
  11. Bit rate                                 : 8 989 kb/s
  12. Width                                    : 1 920 pixels
  13. Height                                   : 1 040 pixels
  14. Display aspect ratio                     : 1.85:1
  15. Frame rate mode                          : Constant
  16. Frame rate                               : 23.976 (24000/1001) FPS
  17. Color space                              : YUV
  18. Chroma subsampling                       : 4:2:0
  19. Bit depth                                : 8 bits
  20. Scan type                                : Progressive
  21. Bits/(Pixel*Frame)                       : 0.188
  22. Stream size                              : 5.48 GiB (84%)
  23. Writing library                          : x264 core 96 r1602 69588a7
  24. Encoding settings                        : cabac=1 / ref=4 / deblock=1:0:0 / analyse=0x3:0x113 / me=umh / subme=7 / psy=1 / psy_rd=1.00:0.20 / mixed_ref=1 / me_range=16 / chroma_me=1 / trellis=1 / 8x8dct=1 / cqm=0 / deadzone=21,11 / fast_pskip=1 / chroma_qp_offset=-3 / threads=12 / sliced_threads=0 / nr=0 / decimate=1 / interlaced=0 / constrained_intra=0 / bframes=3 / b_pyramid=2 / b_adapt=1 / b_bias=0 / direct=3 / weightb=1 / weightp=0 / keyint=250 / keyint_min=25 / scenecut=40 / intra_refresh=0 / rc_lookahead=40 / rc=2pass / mbtree=1 / bitrate=8989 / ratetol=1.0 / qcomp=0.60 / qpmin=10 / qpmax=51 / qpstep=4 / cplxblur=20.0 / qblur=0.5 / ip_ratio=1.40 / aq=1:1.00
  25. Language                                 : English
  26. Default                                  : Yes
  27. Forced                                   : No

  28. Audio
  29. ID                                       : 2
  30. Format                                   : DTS
  31. Format/Info                              : Digital Theater Systems
  32. Codec ID                                 : A_DTS
  33. Duration                                 : 1 h 29 min
  34. Bit rate mode                            : Constant
  35. Bit rate                                 : 1 509 kb/s
  36. Channel(s)                               : 6 channels
  37. Channel positions                        : Front: L C R, Side: L R, LFE
  38. Sampling rate                            : 48.0 kHz
  39. Frame rate                               : 93.750 FPS (512 SPF)
  40. Bit depth                                : 24 bits
  41. Compression mode                         : Lossy
  42. Stream size                              : 966 MiB (14%)
  43. Language                                 : English
  44. Default                                  : Yes
  45. Forced                                   : No

  46. Text
  47. ID                                       : 3
  48. Format                                   : UTF-8
  49. Codec ID                                 : S_TEXT/UTF8
  50. Codec ID/Info                            : UTF-8 Plain Text
  51. Language                                 : English
  52. Default                                  : No
  53. Forced                                   : No

  54. Menu
  55. 00:00:00.000                             : en:00:00:00.000
  56. 00:08:35.765                             : en:00:08:35.765
  57. 00:14:07.680                             : en:00:14:07.680
  58. 00:21:30.748                             : en:00:21:30.748
  59. 00:26:27.795                             : en:00:26:27.795
  60. 00:30:23.447                             : en:00:30:23.447
  61. 00:33:53.240                             : en:00:33:53.240
  62. 00:41:18.267                             : en:00:41:18.267
  63. 00:46:29.245                             : en:00:46:29.245
  64. 00:54:53.957                             : en:00:54:53.957
  65. 00:58:07.984                             : en:00:58:07.984
  66. 01:01:14.296                             : en:01:01:14.296
  67. 01:08:10.962                             : en:01:08:10.962
  68. 01:14:17.453                             : en:01:14:17.453
  69. 01:17:53.961                             : en:01:17:53.961
  70. 01:22:28.735                             : en:01:22:28.735
复制代码

复制代码

青春大抵挡/宅男卡卡 Youth.in.Revolt.2009.1080p.Bluray.x264-CBGB 6.56GB-2.png 青春大抵挡/宅男卡卡 Youth.in.Revolt.2009.1080p.Bluray.x264-CBGB 6.56GB-3.png 青春大抵挡/宅男卡卡 Youth.in.Revolt.2009.1080p.Bluray.x264-CBGB 6.56GB-4.png






回复

使用道具 举报

懒得打字嘛,点击右侧快捷回复 【右侧内容,后台自定义】
您需要登录后才可以回帖 登录 | 立即加入

本版积分规则

Archiver|小黑屋| 蓝光电影网 |网站地图

Copyright © 2021 Comsenz Inc. Powered by 蓝光电影网

蓝光电影网

本站内容由用户自主分享和转载自互联网,转载目的在于传递更多信息,并不代表本网赞同其观点和对其真实性负责。

如有侵权、违反国家法律政策行为,请联系我们,我们会第一时间及时清除和处理!

举报反馈邮箱:[email protected]

快速回复 返回顶部 返回列表