找回密码

蓝光电影网

查看: 1237|回复: 7

[喜剧] 邻家特工/一屋特攻队 The.Spy.Next.Door.2010.1080p.Bluray.x264-CBGB 6.55GB

[复制链接]
蓝光币
623
发表于 2018-9-12 10:39:07 | 显示全部楼层 |阅读模式

邻家奸细/一屋特攻队 The.Spy.Next.Door.2010.1080p.Bluray.x264-CBGB 6.55GB-1.jpg
◎译  名 邻家奸细/一屋特攻队/邻家特务
◎片  名 The Spy Next Door
◎年  代 2010
◎产  地 美国
◎类  别 笑剧/行动/家庭
◎语  言 英语
◎上映日期 2010-01-15(中国大陆)/2010-01-15(美国)
◎豆瓣评分 6.1/10 from 69,825 users
◎豆瓣链接 https://movie.douban.com/subject/3179758/
◎片  长 94 分钟
◎导  演 布莱恩·莱温特 Brian Levant
◎主  演 成龙
      安贝·瓦莱塔 Amber Valletta
      玛德琳·卡罗尔 Madeline Carroll
      卢卡斯·提尔 Lucas Till
      阿琳娜·福利 Alina Foley
      维尔·桑德里 Will Shadley
      凯瑟琳·波切尔 Katherine Boecher
      比利·雷·赛勒斯 Billy Ray Cyrus
      乔治·洛佩兹 George Lopez

◎简  介

  鲍伯(成龙 饰)与单独带着三个孩子的女邻人吉莉安相恋已经三个月了,但是三个小鬼并不怎样喜好这个窝囊、有趣,如同机械人般一程稳定的钢笔商,但鲍伯实在是一位行将退休的奥秘奸细。吉莉安因故外出,鲍伯决议由他来照顾孩子,一个大汉子要对付三个古灵精怪的小孩子已经充足让他头疼,而孩子们无意间下载了一伙罪犯的细菌配方引来了好人的追杀,此时,中情局内部也有人想获得配方。在庇护孩子们的进程中,鲍伯的身份爆光,吉莉安为了庇护孩子们和他分手。为了冲击犯罪,为了庇护孩子们,鲍伯必须重新出马……
  本片是成龙继《尖峰时辰》系列后最新一部好莱坞作品。

◎获奖情况

  第31届金酸莓奖  (2011)
  最差男配角(提名) 比利·雷·赛勒斯 / 乔治·洛佩兹

  1. Video
  2. ID                                       : 1
  3. Format                                   : AVC
  4. Format/Info                              : Advanced Video Codec
  5. Format profile                           : [url=/cdn-cgi/l/email-protection][email protected][/url]
  6. Format settings                          : CABAC / 4 Ref Frames
  7. Format settings, CABAC                   : Yes
  8. Format settings, ReFrames                : 4 frames
  9. Codec ID                                 : V_MPEG4/ISO/AVC
  10. Duration                                 : 1 h 34 min
  11. Bit rate                                 : 8 448 kb/s
  12. Width                                    : 1 920 pixels
  13. Height                                   : 1 080 pixels
  14. Display aspect ratio                     : 16:9
  15. Frame rate mode                          : Constant
  16. Frame rate                               : 23.976 (24000/1001) FPS
  17. Color space                              : YUV
  18. Chroma subsampling                       : 4:2:0
  19. Bit depth                                : 8 bits
  20. Scan type                                : Progressive
  21. Bits/(Pixel*Frame)                       : 0.170
  22. Stream size                              : 5.43 GiB (83%)
  23. Writing library                          : x264 core 94 r1570 d9db8b3
  24. Encoding settings                        : cabac=1 / ref=4 / deblock=1:0:0 / analyse=0x3:0x113 / me=umh / subme=7 / psy=1 / psy_rd=1.00:0.20 / mixed_ref=1 / me_range=16 / chroma_me=1 / trellis=1 / 8x8dct=1 / cqm=0 / deadzone=21,11 / fast_pskip=1 / chroma_qp_offset=-3 / threads=12 / sliced_threads=0 / nr=0 / decimate=1 / interlaced=0 / constrained_intra=0 / bframes=3 / b_pyramid=2 / b_adapt=1 / b_bias=0 / direct=3 / wpredb=1 / wpredp=0 / keyint=250 / keyint_min=25 / scenecut=40 / intra_refresh=0 / rc_lookahead=40 / rc=2pass / mbtree=1 / bitrate=8448 / ratetol=1.0 / qcomp=0.60 / qpmin=10 / qpmax=51 / qpstep=4 / cplxblur=20.0 / qblur=0.5 / ip_ratio=1.40 / aq=1:1.00
  25. Language                                 : English
  26. Default                                  : Yes
  27. Forced                                   : No

  28. Audio
  29. ID                                       : 2
  30. Format                                   : DTS
  31. Format/Info                              : Digital Theater Systems
  32. Codec ID                                 : A_DTS
  33. Duration                                 : 1 h 34 min
  34. Bit rate mode                            : Constant
  35. Bit rate                                 : 1 509 kb/s
  36. Channel(s)                               : 6 channels
  37. Channel positions                        : Front: L C R, Side: L R, LFE
  38. Sampling rate                            : 48.0 kHz
  39. Frame rate                               : 93.750 FPS (512 SPF)
  40. Bit depth                                : 24 bits
  41. Compression mode                         : Lossy
  42. Stream size                              : 1 018 MiB (15%)
  43. Language                                 : English
  44. Default                                  : Yes
  45. Forced                                   : No

  46. Text
  47. ID                                       : 3
  48. Format                                   : UTF-8
  49. Codec ID                                 : S_TEXT/UTF8
  50. Codec ID/Info                            : UTF-8 Plain Text
  51. Language                                 : English
  52. Default                                  : No
  53. Forced                                   : No

  54. Menu
  55. 00:00:00.000                             : en:00:00:00.000
  56. 00:05:52.978                             : en:00:05:52.978
  57. 00:11:24.809                             : en:00:11:24.809
  58. 00:18:41.245                             : en:00:18:41.245
  59. 00:24:27.383                             : en:00:24:27.383
  60. 00:33:26.171                             : en:00:33:26.171
  61. 00:40:52.367                             : en:00:40:52.367
  62. 00:46:44.135                             : en:00:46:44.135
  63. 00:52:40.407                             : en:00:52:40.407
  64. 00:58:15.075                             : en:00:58:15.075
  65. 01:04:58.770                             : en:01:04:58.770
  66. 01:09:53.481                             : en:01:09:53.481
  67. 01:15:38.492                             : en:01:15:38.492
  68. 01:21:39.520                             : en:01:21:39.520
  69. 01:23:59.451                             : en:01:23:59.451
  70. 01:26:35.399                             : en:01:26:35.399
复制代码

复制代码

邻家奸细/一屋特攻队 The.Spy.Next.Door.2010.1080p.Bluray.x264-CBGB 6.55GB-2.png 邻家奸细/一屋特攻队 The.Spy.Next.Door.2010.1080p.Bluray.x264-CBGB 6.55GB-3.png 邻家奸细/一屋特攻队 The.Spy.Next.Door.2010.1080p.Bluray.x264-CBGB 6.55GB-4.png




回复

使用道具 举报

懒得打字嘛,点击右侧快捷回复 【右侧内容,后台自定义】
您需要登录后才可以回帖 登录 | 立即加入

本版积分规则

Archiver|小黑屋| 蓝光电影网 |网站地图

Copyright © 2021 Comsenz Inc. Powered by 蓝光电影网

蓝光电影网

本站内容由用户自主分享和转载自互联网,转载目的在于传递更多信息,并不代表本网赞同其观点和对其真实性负责。

如有侵权、违反国家法律政策行为,请联系我们,我们会第一时间及时清除和处理!

举报反馈邮箱:[email protected]

快速回复 返回顶部 返回列表