找回密码

蓝光电影网

查看: 805|回复: 0

[剧情] 记住我/惊动了爱情 Remember.Me.2010.1080p.Bluray.x264-CBGB 7.95GB

[复制链接]
蓝光币
623
发表于 2018-9-12 10:41:34 | 显示全部楼层 |阅读模式

记着我/轰动了恋爱 Remember.Me.2010.1080p.Bluray.x264-CBGB 7.95GB-1.jpg
◎译  名 记着我/轰动了恋爱(港)/记得我(台)
◎片  名 Remember Me
◎年  代 2010
◎产  地 美国
◎类  别 剧情/恋爱/家庭
◎语  言 英语/汉语普通话
◎上映日期 2010-03-12
◎豆瓣评分 7.3/10 from 50,547 users
◎豆瓣链接 https://movie.douban.com/subject/3626365/
◎片  长 113分钟
◎导  演 Allen Coulter
◎主  演 罗伯特·帕丁森 Robert Pattinson
      艾米莉·德瑞文 Emilie de Ravin
      皮尔斯·布鲁斯南 Pierce Brosnan
      克里斯·库珀 Chris Cooper
      玛莎·普林顿 Martha Plimpton
      莉娜·奥琳 Lena Olin
      佩顿·利斯特 Peyton List
      露比·杰琳斯 Ruby Jerins
      Tate Ellington

◎简  介

  21岁的泰勒(罗伯特·帕丁森 Robert Pattinson 饰)非常的叛逆,与舍友挤在一幢狭窄的公寓里,全日沉溺于书籍和尼古丁当中,脾性急躁甚至因打斗而被差人拘留。面临自己成功的企业家父亲查尔斯(皮尔斯·布鲁斯南 Pierce Brosnan 饰),泰勒布满了抵牾,而且把哥哥的自杀和妹妹早熟的性情全数归罪于父亲对他们的疏忽。泰勒和艾丽(艾米莉·德瑞文 Emilie de Ravin 饰)的交往始于一场打斗事务,泰勒因打斗而被一位差人(克里斯·库珀 Chris Cooper 饰)拘留,几天后,泰勒的室友发现那名差人的女儿艾丽居然和他们在同一所黉舍。在室友的鼓动下,泰勒和艾丽起头了交往。
  面临生活中的各种不幸,泰勒挑选了用匹敌去庇护自己,而与他有着类似不幸遭受的艾丽却用悲观豪迈的态度去享用生活……

◎获奖情况

  第31届金酸莓奖  (2011)
  最差男配角(提名) 罗伯特·帕丁森

  第12届美国青少年挑选奖  (2010)
  最好剧情片(提名)
  最好剧情片男演员 罗伯特·帕丁森

  1. Video
  2. ID                                       : 1
  3. Format                                   : AVC
  4. Format/Info                              : Advanced Video Codec
  5. Format profile                           : [url=/cdn-cgi/l/email-protection][email protected][/url]
  6. Format settings                          : CABAC / 4 Ref Frames
  7. Format settings, CABAC                   : Yes
  8. Format settings, ReFrames                : 4 frames
  9. Codec ID                                 : V_MPEG4/ISO/AVC
  10. Duration                                 : 1 h 52 min
  11. Bit rate                                 : 8 623 kb/s
  12. Width                                    : 1 920 pixels
  13. Height                                   : 1 080 pixels
  14. Display aspect ratio                     : 16:9
  15. Frame rate mode                          : Constant
  16. Frame rate                               : 23.976 (24000/1001) FPS
  17. Color space                              : YUV
  18. Chroma subsampling                       : 4:2:0
  19. Bit depth                                : 8 bits
  20. Scan type                                : Progressive
  21. Bits/(Pixel*Frame)                       : 0.173
  22. Stream size                              : 6.61 GiB (83%)
  23. Writing library                          : x264 core 98 r1629 2e81ce1
  24. Encoding settings                        : cabac=1 / ref=4 / deblock=1:0:0 / analyse=0x3:0x113 / me=umh / subme=7 / psy=1 / psy_rd=1.00:0.20 / mixed_ref=1 / me_range=16 / chroma_me=1 / trellis=1 / 8x8dct=1 / cqm=0 / deadzone=21,11 / fast_pskip=1 / chroma_qp_offset=-3 / threads=12 / sliced_threads=0 / nr=0 / decimate=1 / interlaced=0 / constrained_intra=0 / bframes=3 / b_pyramid=2 / b_adapt=1 / b_bias=0 / direct=3 / weightb=1 / weightp=0 / keyint=250 / keyint_min=25 / scenecut=40 / intra_refresh=0 / rc_lookahead=40 / rc=2pass / mbtree=1 / bitrate=8623 / ratetol=1.0 / qcomp=0.60 / qpmin=10 / qpmax=51 / qpstep=4 / cplxblur=20.0 / qblur=0.5 / ip_ratio=1.40 / aq=1:1.00
  25. Language                                 : English
  26. Default                                  : Yes
  27. Forced                                   : No

  28. Audio
  29. ID                                       : 2
  30. Format                                   : DTS
  31. Format/Info                              : Digital Theater Systems
  32. Codec ID                                 : A_DTS
  33. Duration                                 : 1 h 52 min
  34. Bit rate mode                            : Constant
  35. Bit rate                                 : 1 509 kb/s
  36. Channel(s)                               : 6 channels
  37. Channel positions                        : Front: L C R, Side: L R, LFE
  38. Sampling rate                            : 48.0 kHz
  39. Frame rate                               : 93.750 FPS (512 SPF)
  40. Bit depth                                : 24 bits
  41. Compression mode                         : Lossy
  42. Stream size                              : 1.18 GiB (15%)
  43. Language                                 : English
  44. Default                                  : Yes
  45. Forced                                   : No

  46. Text
  47. ID                                       : 3
  48. Format                                   : UTF-8
  49. Codec ID                                 : S_TEXT/UTF8
  50. Codec ID/Info                            : UTF-8 Plain Text
  51. Language                                 : English
  52. Default                                  : No
  53. Forced                                   : No

  54. Menu
  55. 00:00:00.000                             : en:00:00:00.000
  56. 00:04:20.886                             : en:00:04:20.886
  57. 00:10:53.194                             : en:00:10:53.194
  58. 00:15:11.285                             : en:00:15:11.285
  59. 00:20:56.130                             : en:00:20:56.130
  60. 00:25:34.992                             : en:00:25:34.992
  61. 00:32:24.568                             : en:00:32:24.568
  62. 00:37:39.757                             : en:00:37:39.757
  63. 00:45:54.835                             : en:00:45:54.835
  64. 00:52:15.257                             : en:00:52:15.257
  65. 00:59:22.934                             : en:00:59:22.934
  66. 01:05:45.900                             : en:01:05:45.900
  67. 01:11:23.362                             : en:01:11:23.362
  68. 01:17:38.529                             : en:01:17:38.529
  69. 01:25:45.932                             : en:01:25:45.932
  70. 01:32:39.596                             : en:01:32:39.596
  71. 01:39:22.665                             : en:01:39:22.665
  72. 01:44:01.193                             : en:01:44:01.193
复制代码

复制代码

记着我/轰动了恋爱 Remember.Me.2010.1080p.Bluray.x264-CBGB 7.95GB-2.png 记着我/轰动了恋爱 Remember.Me.2010.1080p.Bluray.x264-CBGB 7.95GB-3.png 记着我/轰动了恋爱 Remember.Me.2010.1080p.Bluray.x264-CBGB 7.95GB-4.png







回复

使用道具 举报

懒得打字嘛,点击右侧快捷回复 【右侧内容,后台自定义】
您需要登录后才可以回帖 登录 | 立即加入

本版积分规则

Archiver|小黑屋| 蓝光电影网 |网站地图

Copyright © 2021 Comsenz Inc. Powered by 蓝光电影网

蓝光电影网

本站内容由用户自主分享和转载自互联网,转载目的在于传递更多信息,并不代表本网赞同其观点和对其真实性负责。

如有侵权、违反国家法律政策行为,请联系我们,我们会第一时间及时清除和处理!

举报反馈邮箱:[email protected]

快速回复 返回顶部 返回列表