找回密码

蓝光电影网

查看: 600|回复: 0

[喜剧] 远距离爱情/爱情远着陆 Going.the.Distance.2010.1080p.Bluray.x264-CBGB 7.94GB

[复制链接]
蓝光币
623
发表于 2018-9-12 10:42:27 | 显示全部楼层 |阅读模式

远间隔恋爱/恋爱远着陆 Going.the.Distance.2010.1080p.Bluray.x264-CBGB 7.94GB-1.jpg
◎译  名 远间隔恋爱/恋爱远着陆(港)/真爱零间隔(台)/横跨美国的恋爱/远间隔的恋爱/千里传情
◎片  名 Going the Distance
◎年  代 2010
◎产  地 美国
◎类  别 笑剧/恋爱
◎语  言 英语
◎上映日期 2010-09-03
◎豆瓣评分 6.8/10 from 20,903 users
◎豆瓣链接 https://movie.douban.com/subject/3284396/
◎片  长 102分钟
◎导  演 纳内特·波斯特恩 Nanette Burstein
◎主  演 贾斯汀·朗 Justin Long
      德鲁·巴里摩尔 Drew Barrymore
      克里斯蒂娜·艾伯盖特 Christina Applegate
      查理·戴 Charlie Day

◎简  介

  Erin(德鲁·巴里摩尔 Drew Barrymore 饰)和Garrett(贾斯汀·朗 Justin Long 饰)在花天酒地酒吧相逢,两个青年对彼这人敞开了心胸,饮酒谈心度过了非常浪漫的美好一夜。第二天两人甚至还一块吃了早饭,火花就这样在两人中心闪现了。经过一段长久但又甜蜜的时光,他们不能不面临一个严重的现实题目——Erin的家在旧金山,而Garrett的奇迹在纽约,可是他们两个都谁不愿意放弃现有的一切,加倍舍不得让这段关系竣事。因而,他们凭仗动手机和各式通讯工具起头了一场“远间隔的恋爱”。
  而最初他们的工作跟豪情不能兼顾?能否又会为了对方放下一切来玉成这一段豪情?

  1. Video
  2. ID                                       : 1
  3. Format                                   : AVC
  4. Format/Info                              : Advanced Video Codec
  5. Format profile                           : [url=/cdn-cgi/l/email-protection][email protected][/url]
  6. Format settings                          : CABAC / 5 Ref Frames
  7. Format settings, CABAC                   : Yes
  8. Format settings, ReFrames                : 5 frames
  9. Codec ID                                 : V_MPEG4/ISO/AVC
  10. Duration                                 : 1 h 42 min
  11. Bit rate                                 : 9 574 kb/s
  12. Width                                    : 1 920 pixels
  13. Height                                   : 816 pixels
  14. Display aspect ratio                     : 2.35:1
  15. Frame rate mode                          : Constant
  16. Frame rate                               : 23.976 (24000/1001) FPS
  17. Color space                              : YUV
  18. Chroma subsampling                       : 4:2:0
  19. Bit depth                                : 8 bits
  20. Scan type                                : Progressive
  21. Bits/(Pixel*Frame)                       : 0.255
  22. Stream size                              : 6.70 GiB (84%)
  23. Writing library                          : x264 core 107 r1772 c9dad9e
  24. Encoding settings                        : cabac=1 / ref=5 / deblock=1:0:0 / analyse=0x3:0x113 / me=umh / subme=7 / psy=1 / psy_rd=1.00:0.20 / mixed_ref=1 / me_range=16 / chroma_me=1 / trellis=1 / 8x8dct=1 / cqm=0 / deadzone=21,11 / fast_pskip=1 / chroma_qp_offset=-3 / threads=6 / sliced_threads=0 / nr=0 / decimate=1 / interlaced=0 / constrained_intra=0 / bframes=3 / b_pyramid=2 / b_adapt=1 / b_bias=0 / direct=3 / weightb=1 / open_gop=0 / weightp=0 / keyint=250 / keyint_min=23 / scenecut=40 / intra_refresh=0 / rc_lookahead=40 / rc=2pass / mbtree=1 / bitrate=9574 / ratetol=1.0 / qcomp=0.60 / qpmin=10 / qpmax=51 / qpstep=4 / cplxblur=20.0 / qblur=0.5 / ip_ratio=1.40 / aq=1:1.00
  25. Language                                 : English
  26. Default                                  : Yes
  27. Forced                                   : No

  28. Audio
  29. ID                                       : 2
  30. Format                                   : DTS
  31. Format/Info                              : Digital Theater Systems
  32. Codec ID                                 : A_DTS
  33. Duration                                 : 1 h 42 min
  34. Bit rate mode                            : Constant
  35. Bit rate                                 : 1 509 kb/s
  36. Channel(s)                               : 6 channels
  37. Channel positions                        : Front: L C R, Side: L R, LFE
  38. Sampling rate                            : 48.0 kHz
  39. Frame rate                               : 93.750 FPS (512 SPF)
  40. Bit depth                                : 24 bits
  41. Compression mode                         : Lossy
  42. Stream size                              : 1.08 GiB (14%)
  43. Language                                 : English
  44. Default                                  : Yes
  45. Forced                                   : No

  46. Menu
  47. 00:00:00.000                             : en:00:00:00.000
  48. 00:10:54.988                             : en:00:10:54.988
  49. 00:21:45.596                             : en:00:21:45.596
  50. 00:31:30.764                             : en:00:31:30.764
  51. 00:41:07.048                             : en:00:41:07.048
  52. 00:51:00.266                             : en:00:51:00.266
  53. 01:00:50.272                             : en:01:00:50.272
  54. 01:11:20.568                             : en:01:11:20.568
  55. 01:20:22.985                             : en:01:20:22.985
  56. 01:32:22.537                             : en:01:32:22.537
  57. 01:37:45.234                             : en:01:37:45.234
复制代码

复制代码

远间隔恋爱/恋爱远着陆 Going.the.Distance.2010.1080p.Bluray.x264-CBGB 7.94GB-2.png 远间隔恋爱/恋爱远着陆 Going.the.Distance.2010.1080p.Bluray.x264-CBGB 7.94GB-3.png 远间隔恋爱/恋爱远着陆 Going.the.Distance.2010.1080p.Bluray.x264-CBGB 7.94GB-4.png






回复

使用道具 举报

懒得打字嘛,点击右侧快捷回复 【右侧内容,后台自定义】
您需要登录后才可以回帖 登录 | 立即加入

本版积分规则

Archiver|小黑屋| 蓝光电影网 |网站地图

Copyright © 2021 Comsenz Inc. Powered by 蓝光电影网

蓝光电影网

本站内容由用户自主分享和转载自互联网,转载目的在于传递更多信息,并不代表本网赞同其观点和对其真实性负责。

如有侵权、违反国家法律政策行为,请联系我们,我们会第一时间及时清除和处理!

举报反馈邮箱:[email protected]

快速回复 返回顶部 返回列表