找回密码

蓝光电影网

查看: 3983|回复: 4

[动画] 阿童木/铁臂阿童木 Astro.Boy.2009.1080p.Bluray.x264-CBGB 6.56GB

[复制链接]
蓝光币
623
发表于 2018-9-12 10:43:35 | 显示全部楼层 |阅读模式

阿童木/铁臂阿童木 Astro.Boy.2009.1080p.Bluray.x264-CBGB 6.56GB-1.jpg
◎译  名 阿童木/铁臂阿童木/原子小金刚
◎片  名 Astro Boy
◎年  代 2009
◎产  地 香港/美国/日本
◎类  别 动画/行动/家庭/科幻
◎语  言 英语
◎上映日期 2009-10-05(日本)/2009-10-08(香港)/2009-10-23(中国大陆)/2009-10-23(美国)
◎豆瓣评分 6.8/10 from 40,331 users
◎豆瓣链接 https://movie.douban.com/subject/1917074/
◎片  长 94 分钟
◎导  演 大卫·博维斯 David Bowers
◎主  演 弗莱迪·海默 Freddie Highmore
      克里斯汀·贝尔 Kristen Bell
      尼古拉斯·凯奇 Nicolas Cage
      塞缪尔·杰克逊 Samuel L. Jackson
      查理兹·塞隆 Charlize Theron
      比尔·奈伊 Bill Nighy
      唐纳德·萨瑟兰 Donald Sutherland

◎简  介

  在未来天下,由于痛失爱子,天赋科学家天马博士(尼古拉斯·凯奇 Nicolas Cage 配音)缔造出了机械人阿童木(弗莱迪·海默 Freddie Highmore 配音),想以此来作为儿子的替人,寻觅抚慰。虽然,阿童木具有博士儿子的感情和记忆,而且先辈的法式还在不竭完善其情感,并让他富有怜悯心。可是,博士始终没法接管失子之痛,对阿童木也不能正确看待,并以为他不是人类而将其抛弃。阿童木沉溺为无家可归的流浪儿,而且还备受军方的四周通缉,并终极被捉住。军方要求天马博士拿掉阿童木的能源,让它酿成军方机械人的能源装备。在最初时辰,天马博士忽然觉悟,并辅佐阿童木逃走。面临军方的围追切断,阿童木奋起抵挡,终极一场惊世大战一触即发。在不竭的观光进程中,阿童木也逐步长大,他也接管了自己这机械与人类连系的设想,并负担起全人类生死生死的重任。

◎获奖情况

  第37届动画安妮奖  (2010)
  最好编剧(提名) 大卫·博维斯 / 蒂莫西·哈里斯
  最好分镜(提名) Sharon Bridgeman

  1. Video
  2. ID                                       : 1
  3. Format                                   : AVC
  4. Format/Info                              : Advanced Video Codec
  5. Format profile                           : [url=/cdn-cgi/l/email-protection][email protected][/url]
  6. Format settings                          : CABAC / 4 Ref Frames
  7. Format settings, CABAC                   : Yes
  8. Format settings, ReFrames                : 4 frames
  9. Codec ID                                 : V_MPEG4/ISO/AVC
  10. Duration                                 : 1 h 33 min
  11. Bit rate                                 : 8 497 kb/s
  12. Width                                    : 1 920 pixels
  13. Height                                   : 816 pixels
  14. Display aspect ratio                     : 2.35:1
  15. Frame rate mode                          : Constant
  16. Frame rate                               : 23.976 (24000/1001) FPS
  17. Color space                              : YUV
  18. Chroma subsampling                       : 4:2:0
  19. Bit depth                                : 8 bits
  20. Scan type                                : Progressive
  21. Bits/(Pixel*Frame)                       : 0.226
  22. Stream size                              : 5.44 GiB (83%)
  23. Writing library                          : x264 core 88 r1471 1144615
  24. Encoding settings                        : cabac=1 / ref=5 / deblock=1:0:0 / analyse=0x3:0x113 / me=umh / subme=7 / psy=1 / psy_rd=1.00:0.20 / mixed_ref=1 / me_range=16 / chroma_me=1 / trellis=1 / 8x8dct=1 / cqm=0 / deadzone=21,11 / fast_pskip=1 / chroma_qp_offset=-3 / threads=6 / sliced_threads=0 / nr=0 / decimate=1 / mbaff=0 / constrained_intra=0 / bframes=3 / b_pyramid=1 / b_adapt=1 / b_bias=0 / direct=3 / wpredb=1 / wpredp=2 / keyint=250 / keyint_min=25 / scenecut=40 / intra_refresh=0 / rc_lookahead=40 / rc=2pass / mbtree=1 / bitrate=8497 / ratetol=1.0 / qcomp=0.60 / qpmin=10 / qpmax=51 / qpstep=4 / cplxblur=20.0 / qblur=0.5 / ip_ratio=1.40 / aq=1:1.00
  25. Language                                 : English
  26. Default                                  : Yes
  27. Forced                                   : No

  28. Audio
  29. ID                                       : 2
  30. Format                                   : DTS
  31. Format/Info                              : Digital Theater Systems
  32. Codec ID                                 : A_DTS
  33. Duration                                 : 1 h 33 min
  34. Bit rate mode                            : Constant
  35. Bit rate                                 : 1 509 kb/s
  36. Channel(s)                               : 6 channels
  37. Channel positions                        : Front: L C R, Side: L R, LFE
  38. Sampling rate                            : 48.0 kHz
  39. Frame rate                               : 93.750 FPS (512 SPF)
  40. Bit depth                                : 24 bits
  41. Compression mode                         : Lossy
  42. Stream size                              : 1 013 MiB (15%)
  43. Language                                 : English
  44. Default                                  : Yes
  45. Forced                                   : No

  46. Text
  47. ID                                       : 3
  48. Format                                   : UTF-8
  49. Codec ID                                 : S_TEXT/UTF8
  50. Codec ID/Info                            : UTF-8 Plain Text
  51. Language                                 : English
  52. Default                                  : No
  53. Forced                                   : No

  54. Menu
  55. 00:00:00.000                             : en:00:00:00.000
  56. 00:05:26.493                             : en:00:05:26.493
  57. 00:12:40.510                             : en:00:12:40.510
  58. 00:17:41.602                             : en:00:17:41.602
  59. 00:22:41.151                             : en:00:22:41.151
  60. 00:26:56.490                             : en:00:26:56.490
  61. 00:29:30.394                             : en:00:29:30.394
  62. 00:33:34.763                             : en:00:33:34.763
  63. 00:37:24.784                             : en:00:37:24.784
  64. 00:42:14.240                             : en:00:42:14.240
  65. 00:47:46.322                             : en:00:47:46.322
  66. 00:52:19.053                             : en:00:52:19.053
  67. 00:57:24.358                             : en:00:57:24.358
  68. 01:00:14.611                             : en:01:00:14.611
  69. 01:06:49.005                             : en:01:06:49.005
  70. 01:13:00.960                             : en:01:13:00.960
  71. 01:18:20.029                             : en:01:18:20.029
  72. 01:22:15.347                             : en:01:22:15.347
复制代码

复制代码

阿童木/铁臂阿童木 Astro.Boy.2009.1080p.Bluray.x264-CBGB 6.56GB-2.png 阿童木/铁臂阿童木 Astro.Boy.2009.1080p.Bluray.x264-CBGB 6.56GB-3.png 阿童木/铁臂阿童木 Astro.Boy.2009.1080p.Bluray.x264-CBGB 6.56GB-4.png






回复

使用道具 举报

懒得打字嘛,点击右侧快捷回复 【右侧内容,后台自定义】
您需要登录后才可以回帖 登录 | 立即加入

本版积分规则

Archiver|小黑屋| 蓝光电影网 |网站地图

Copyright © 2021 Comsenz Inc. Powered by 蓝光电影网

蓝光电影网

本站内容由用户自主分享和转载自互联网,转载目的在于传递更多信息,并不代表本网赞同其观点和对其真实性负责。

如有侵权、违反国家法律政策行为,请联系我们,我们会第一时间及时清除和处理!

举报反馈邮箱:[email protected]

快速回复 返回顶部 返回列表