找回密码

蓝光电影网

查看: 608|回复: 0

[剧情] 半个尼尔森/我的左派老师 Half.Nelson.2006.LiMiTED.1080p.BluRay.x264-JustWatch 8.74GB

[复制链接]
蓝光币
623
发表于 2018-9-12 10:45:23 | 显示全部楼层 |阅读模式

半个尼尔森/我的右派教员 Half.Nelson.2006.LiMiTED.1080p.BluRay.x264-JustWatch 8.74GB-1.jpg
◎译  名 半个尼尔森/我的右派教员/我的毒虫教员/单臂扼颈
◎片  名 Half Nelson
◎年  代 2006
◎产  地 美国
◎类  别 剧情
◎语  言 英语
◎上映日期 2006-08-11
◎豆瓣评分 7.6/10 from 5,444 users
◎豆瓣链接 https://movie.douban.com/subject/1850942/
◎片  长 USA: 106 分钟(Sundance Film Festival)
◎导  演 瑞安·弗雷克 Ryan Fleck
◎主  演 瑞恩·高斯林 Ryan Gosling
      安东尼·麦凯 Anthony Mackie
      莎莉卡·艾普斯 Shareeka Epps
      Jeff Lima
      Nathan Corbett

◎简  介

  白人历史教师丹?邓恩(瑞恩?高斯林 饰),在纽约布鲁克林一家陈旧的公立中学教书,他的门生多是黑人。丹有豪情和缔造力,酷爱门生,不遵守官方讲授纲领,相信黑格尔辩证法,以为历史本质由相反力感化而成。他使得纸页间死板的历史活泼新鲜,激励门生思考和分析历史,及自己周遍天下的运作法例,学天生为丹存活于社会的救生索。早晨,他是不成救药的瘾君子。
  这类割裂的生活没有能延续多久,丹某次在空无一人的女更衣室吸毒而虚脱,被他的黑人女门生德丽(莎莉卡?艾普斯 饰)发现。配合守旧的阴晦奥秘,拉近了他们的关系,也改变了各自的生活。

◎获奖情况

  第79届奥斯卡金像奖  (2007)
  最好男配角(提名) 瑞恩·高斯林

  第59届洛迦诺国际电影节  (2006)
  金豹奖(提名) 瑞安·弗雷克
  评审团出格奖 Alex Orlovsky / Lynette Howell / Rosanne Korenberg / 安娜·波顿 / 瑞安·弗雷克 / Jamie Patricof

  第7届美国电影学会奖  (2006)
  年度佳片

  1. Video
  2. ID                                       : 1
  3. Format                                   : AVC
  4. Format/Info                              : Advanced Video Codec
  5. Format profile                           : [url=/cdn-cgi/l/email-protection][email protected][/url]
  6. Format settings                          : CABAC / 4 Ref Frames
  7. Format settings, CABAC                   : Yes
  8. Format settings, RefFrames               : 4 frames
  9. Codec ID                                 : V_MPEG4/ISO/AVC
  10. Duration                                 : 1 h 47 min
  11. Bit rate                                 : 10.2 Mb/s
  12. Width                                    : 1 920 pixels
  13. Height                                   : 1 080 pixels
  14. Display aspect ratio                     : 16:9
  15. Frame rate mode                          : Constant
  16. Frame rate                               : 23.976 (24000/1001) FPS
  17. Color space                              : YUV
  18. Chroma subsampling                       : 4:2:0
  19. Bit depth                                : 8 bits
  20. Scan type                                : Progressive
  21. Bits/(Pixel*Frame)                       : 0.205
  22. Stream size                              : 7.44 GiB (85%)
  23. Writing library                          : x264 core 155 r2901 7d0ff22
  24. Encoding settings                        : cabac=1 / ref=4 / deblock=1:-2:-2 / analyse=0x3:0x113 / me=umh / subme=8 / psy=1 / psy_rd=1.00:0.00 / mixed_ref=1 / me_range=16 / chroma_me=1 / trellis=2 / 8x8dct=1 / cqm=0 / deadzone=21,11 / fast_pskip=1 / chroma_qp_offset=-2 / threads=34 / lookahead_threads=5 / sliced_threads=0 / nr=0 / decimate=1 / interlaced=0 / bluray_compat=0 / constrained_intra=0 / bframes=3 / b_pyramid=2 / b_adapt=2 / b_bias=0 / direct=3 / weightb=1 / open_gop=0 / weightp=2 / keyint=240 / keyint_min=24 / scenecut=40 / intra_refresh=0 / rc_lookahead=50 / rc=2pass / mbtree=1 / bitrate=10185 / ratetol=1.0 / qcomp=0.60 / qpmin=0 / qpmax=69 / qpstep=4 / cplxblur=20.0 / qblur=0.5 / ip_ratio=1.40 / aq=1:1.00
  25. Language                                 : English
  26. Default                                  : Yes
  27. Forced                                   : No

  28. Audio
  29. ID                                       : 2
  30. Format                                   : DTS
  31. Format/Info                              : Digital Theater Systems
  32. Mode                                     : 16
  33. Format settings, Endianness              : Big
  34. Codec ID                                 : A_DTS
  35. Duration                                 : 1 h 47 min
  36. Bit rate mode                            : Constant
  37. Bit rate                                 : 1 509 kb/s
  38. Channel(s)                               : 6 channels
  39. Channel positions                        : Front: L C R, Side: L R, LFE
  40. Sampling rate                            : 48.0 kHz
  41. Frame rate                               : 93.750 FPS (512 SPF)
  42. Bit depth                                : 24 bits
  43. Compression mode                         : Lossy
  44. Stream size                              : 1.13 GiB (13%)
  45. Language                                 : English
  46. Default                                  : Yes
  47. Forced                                   : No

  48. Menu
  49. 00:00:00.000                             : en:00:00:00.000
  50. 00:09:30.653                             : en:00:09:30.653
  51. 00:19:52.066                             : en:00:19:52.066
  52. 00:29:22.094                             : en:00:29:22.094
  53. 00:39:48.845                             : en:00:39:48.845
  54. 00:50:41.830                             : en:00:50:41.830
  55. 01:00:33.255                             : en:01:00:33.255
  56. 01:08:42.869                             : en:01:08:42.869
  57. 01:18:49.934                             : en:01:18:49.934
  58. 01:23:16.617                             : en:01:23:16.617
  59. 01:32:21.619                             : en:01:32:21.619
  60. 01:40:56.634                             : en:01:40:56.634
复制代码

复制代码

半个尼尔森/我的右派教员 Half.Nelson.2006.LiMiTED.1080p.BluRay.x264-JustWatch 8.74GB-2.jpg






回复

使用道具 举报

懒得打字嘛,点击右侧快捷回复 【右侧内容,后台自定义】
您需要登录后才可以回帖 登录 | 立即加入

本版积分规则

Archiver|小黑屋| 蓝光电影网 |网站地图

Copyright © 2021 Comsenz Inc. Powered by 蓝光电影网

蓝光电影网

本站内容由用户自主分享和转载自互联网,转载目的在于传递更多信息,并不代表本网赞同其观点和对其真实性负责。

如有侵权、违反国家法律政策行为,请联系我们,我们会第一时间及时清除和处理!

举报反馈邮箱:[email protected]

快速回复 返回顶部 返回列表